  0
SECTION
  2
HEADER
  9
$ACADVER
  1
AC1015
  9
$ACADMAINTVER
 70
     6
  9
$DWGCODEPAGE
  3
ANSI_1252
  9
$INSBASE
 10
0.0
 20
0.0
 30
0.0
  9
$EXTMIN
 10
0.0
 20
0.0
 30
0.0
  9
$EXTMAX
 10
594.0
 20
420.0
 30
0.0
  9
$LIMMIN
 10
0.0
 20
0.0
  9
$LIMMAX
 10
594.0
 20
420.0
  9
$ORTHOMODE
 70
     0
  9
$REGENMODE
 70
     1
  9
$FILLMODE
 70
     1
  9
$QTEXTMODE
 70
     0
  9
$MIRRTEXT
 70
     1
  9
$LTSCALE
 40
1.0
  9
$ATTMODE
 70
     1
  9
$TEXTSIZE
 40
0.2
  9
$TRACEWID
 40
0.05
  9
$TEXTSTYLE
  7
Standard
  9
$CLAYER
  8
0
  9
$CELTYPE
  6
ByLayer
  9
$CECOLOR
 62
   256
  9
$CELTSCALE
 40
25.4
  9
$DISPSILH
 70
     0
  9
$DIMSCALE
 40
1.0
  9
$DIMASZ
 40
0.18
  9
$DIMEXO
 40
0.0625
  9
$DIMDLI
 40
0.38
  9
$DIMRND
 40
0.0
  9
$DIMDLE
 40
0.0
  9
$DIMEXE
 40
0.18
  9
$DIMTP
 40
0.0
  9
$DIMTM
 40
0.0
  9
$DIMTXT
 40
0.18
  9
$DIMCEN
 40
0.09
  9
$DIMTSZ
 40
0.0
  9
$DIMTOL
 70
     0
  9
$DIMLIM
 70
     0
  9
$DIMTIH
 70
     1
  9
$DIMTOH
 70
     1
  9
$DIMSE1
 70
     0
  9
$DIMSE2
 70
     0
  9
$DIMTAD
 70
     0
  9
$DIMZIN
 70
     0
  9
$DIMBLK
  1

  9
$DIMASO
 70
     1
  9
$DIMSHO
 70
     1
  9
$DIMPOST
  1

  9
$DIMAPOST
  1

  9
$DIMALT
 70
     0
  9
$DIMALTD
 70
     2
  9
$DIMALTF
 40
25.4
  9
$DIMLFAC
 40
1.0
  9
$DIMTOFL
 70
     0
  9
$DIMTVP
 40
0.0
  9
$DIMTIX
 70
     0
  9
$DIMSOXD
 70
     0
  9
$DIMSAH
 70
     0
  9
$DIMBLK1
  1

  9
$DIMBLK2
  1

  9
$DIMSTYLE
  2
Standard
  9
$DIMCLRD
 70
     0
  9
$DIMCLRE
 70
     0
  9
$DIMCLRT
 70
     0
  9
$DIMTFAC
 40
1.0
  9
$DIMGAP
 40
0.09
  9
$DIMJUST
 70
     0
  9
$DIMSD1
 70
     0
  9
$DIMSD2
 70
     0
  9
$DIMTOLJ
 70
     1
  9
$DIMTZIN
 70
     0
  9
$DIMALTZ
 70
     0
  9
$DIMALTTZ
 70
     0
  9
$DIMUPT
 70
     0
  9
$DIMDEC
 70
     4
  9
$DIMTDEC
 70
     4
  9
$DIMALTU
 70
     2
  9
$DIMALTTD
 70
     2
  9
$DIMTXSTY
  7
Standard
  9
$DIMAUNIT
 70
     0
  9
$DIMADEC
 70
     0
  9
$DIMALTRND
 40
0.0
  9
$DIMAZIN
 70
     0
  9
$DIMDSEP
 70
    46
  9
$DIMATFIT
 70
     3
  9
$DIMFRAC
 70
     0
  9
$DIMLDRBLK
  1

  9
$DIMLUNIT
 70
     2
  9
$DIMLWD
 70
    -2
  9
$DIMLWE
 70
    -2
  9
$DIMTMOVE
 70
     0
  9
$LUNITS
 70
     2
  9
$LUPREC
 70
     4
  9
$SKETCHINC
 40
0.1
  9
$FILLETRAD
 40
0.5
  9
$AUNITS
 70
     0
  9
$AUPREC
 70
     0
  9
$MENU
  1
.
  9
$ELEVATION
 40
0.0
  9
$PELEVATION
 40
0.0
  9
$THICKNESS
 40
0.0
  9
$LIMCHECK
 70
     0
  9
$CHAMFERA
 40
0.5
  9
$CHAMFERB
 40
0.5
  9
$CHAMFERC
 40
1.0
  9
$CHAMFERD
 40
0.0
  9
$SKPOLY
 70
     0
  9
$TDCREATE
 40
2454543.648330625
  9
$TDUCREATE
 40
2454543.648330625
  9
$TDUPDATE
 40
2454543.648330637
  9
$TDUUPDATE
 40
2454543.648330637
  9
$TDINDWG
 40
0.0000000116
  9
$TDUSRTIMER
 40
0.0000000116
  9
$USRTIMER
 70
     1
  9
$ANGBASE
 50
0.0
  9
$ANGDIR
 70
     0
  9
$PDMODE
 70
     0
  9
$PDSIZE
 40
0.0
  9
$PLINEWID
 40
0.0
  9
$SPLFRAME
 70
     0
  9
$SPLINETYPE
 70
     6
  9
$SPLINESEGS
 70
     8
  9
$HANDSEED
  5
2EA
  9
$SURFTAB1
 70
     6
  9
$SURFTAB2
 70
     6
  9
$SURFTYPE
 70
     6
  9
$SURFU
 70
     6
  9
$SURFV
 70
     6
  9
$UCSBASE
  2

  9
$UCSNAME
  2

  9
$UCSORG
 10
0.0
 20
0.0
 30
0.0
  9
$UCSXDIR
 10
1.0
 20
0.0
 30
0.0
  9
$UCSYDIR
 10
0.0
 20
1.0
 30
0.0
  9
$UCSORTHOREF
  2

  9
$UCSORTHOVIEW
 70
     0
  9
$UCSORGTOP
 10
0.0
 20
0.0
 30
0.0
  9
$UCSORGBOTTOM
 10
0.0
 20
0.0
 30
0.0
  9
$UCSORGLEFT
 10
0.0
 20
0.0
 30
0.0
  9
$UCSORGRIGHT
 10
0.0
 20
0.0
 30
0.0
  9
$UCSORGFRONT
 10
0.0
 20
0.0
 30
0.0
  9
$UCSORGBACK
 10
0.0
 20
0.0
 30
0.0
  9
$PUCSBASE
  2

  9
$PUCSNAME
  2

  9
$PUCSORG
 10
0.0
 20
0.0
 30
0.0
  9
$PUCSXDIR
 10
1.0
 20
0.0
 30
0.0
  9
$PUCSYDIR
 10
0.0
 20
1.0
 30
0.0
  9
$PUCSORTHOREF
  2

  9
$PUCSORTHOVIEW
 70
     0
  9
$PUCSORGTOP
 10
0.0
 20
0.0
 30
0.0
  9
$PUCSORGBOTTOM
 10
0.0
 20
0.0
 30
0.0
  9
$PUCSORGLEFT
 10
0.0
 20
0.0
 30
0.0
  9
$PUCSORGRIGHT
 10
0.0
 20
0.0
 30
0.0
  9
$PUCSORGFRONT
 10
0.0
 20
0.0
 30
0.0
  9
$PUCSORGBACK
 10
0.0
 20
0.0
 30
0.0
  9
$USERI1
 70
     0
  9
$USERI2
 70
     0
  9
$USERI3
 70
     0
  9
$USERI4
 70
     0
  9
$USERI5
 70
     0
  9
$USERR1
 40
0.0
  9
$USERR2
 40
0.0
  9
$USERR3
 40
0.0
  9
$USERR4
 40
0.0
  9
$USERR5
 40
0.0
  9
$WORLDVIEW
 70
     1
  9
$SHADEDGE
 70
     3
  9
$SHADEDIF
 70
    70
  9
$TILEMODE
 70
     1
  9
$MAXACTVP
 70
    64
  9
$PINSBASE
 10
0.0
 20
0.0
 30
0.0
  9
$PLIMCHECK
 70
     0
  9
$PEXTMIN
 10
0.0
 20
0.0
 30
0.0
  9
$PEXTMAX
 10
594.0
 20
420.0
 30
0.0
  9
$PLIMMIN
 10
0.0
 20
0.0
  9
$PLIMMAX
 10
594.0
 20
420.0
  9
$UNITMODE
 70
     0
  9
$VISRETAIN
 70
     1
  9
$PLINEGEN
 70
     0
  9
$PSLTSCALE
 70
     1
  9
$TREEDEPTH
 70
  3020
  9
$CMLSTYLE
  2
Standard
  9
$CMLJUST
 70
     0
  9
$CMLSCALE
 40
1.0
  9
$PROXYGRAPHICS
 70
     1
  9
$MEASUREMENT
 70
     1
  9
$CELWEIGHT
370
    -1
  9
$ENDCAPS
280
     0
  9
$JOINSTYLE
280
     0
  9
$LWDISPLAY
290
     0
  9
$INSUNITS
 70
     1
  9
$HYPERLINKBASE
  1

  9
$STYLESHEET
  1

  9
$XEDIT
290
     1
  9
$CEPSNTYPE
380
     0
  9
$PSTYLEMODE
290
     1
  9
$FINGERPRINTGUID
  2
{B48E9AE9-61EB-426D-9BB2-11F895437267}
  9
$VERSIONGUID
  2
{FAEB1C32-E019-11D5-929B-00C0DF256EC4}
  9
$EXTNAMES
290
     1
  9
$PSVPSCALE
 40
0.0
  9
$OLESTARTUP
290
     0
  0
ENDSEC
  0
SECTION
  2
CLASSES
  0
CLASS
  1
ACDBDICTIONARYWDFLT
  2
AcDbDictionaryWithDefault
  3
ObjectDBX Classes
 90
        0
280
     0
281
     0
  0
CLASS
  1
ACDBPLACEHOLDER
  2
AcDbPlaceHolder
  3
ObjectDBX Classes
 90
        0
280
     0
281
     0
  0
CLASS
  1
LAYOUT
  2
AcDbLayout
  3
ObjectDBX Classes
 90
        0
280
     0
281
     0
  0
ENDSEC
  0
SECTION
  2
TABLES
  0
TABLE
  2
VPORT
  5
8
330
0
100
AcDbSymbolTable
 70
     1
  0
VPORT
  5
29
330
8
100
AcDbSymbolTableRecord
100
AcDbViewportTableRecord
  2
*Active
 70
     0
 10
0.0
 20
0.0
 11
1.0
 21
1.0
 12
10.4299065421
 22
4.5
 13
0.0
 23
0.0
 14
0.5
 24
0.5
 15
0.5
 25
0.5
 16
0.0
 26
0.0
 36
1.0
 17
0.0
 27
0.0
 37
0.0
 40
9.0
 41
1.9729729729
 42
50.0
 43
0.0
 44
0.0
 50
0.0
 51
0.0
 71
     0
 72
   100
 73
     1
 74
     3
 75
     0
 76
     0
 77
     0
 78
     0
281
     0
 65
     1
110
0.0
120
0.0
130
0.0
111
1.0
121
0.0
131
0.0
112
0.0
122
1.0
132
0.0
 79
     0
146
0.0
  0
ENDTAB
  0
TABLE
  2
LTYPE
  5
5
330
0
100
AcDbSymbolTable
 70
     2
  0
LTYPE
  5
14
330
5
100
AcDbSymbolTableRecord
100
AcDbLinetypeTableRecord
  2
ByBlock
 70
     0
  3

 72
    65
 73
     0
 40
0.0
  0
LTYPE
  5
15
330
5
100
AcDbSymbolTableRecord
100
AcDbLinetypeTableRecord
  2
ByLayer
 70
     0
  3

 72
    65
 73
     0
 40
0.0
  0
LTYPE
  5
16
330
5
100
AcDbSymbolTableRecord
100
AcDbLinetypeTableRecord
  2
Continuous
 70
     0
  3
Solid line
 72
    65
 73
     0
 40
0.0
  0
LTYPE
  5
31
330
5
100
AcDbSymbolTableRecord
100
AcDbLinetypeTableRecord
  2
CENTER2
 70
     0
  3
___ _ ___ _ ___ _ ___ _ ___ _ ___ _ ___ _ ___ _
 72
    65
 73
     4
 40
1.125
 49
0.75
 74
     4
 75
     0
340
0
 46
0.0
 50
0.0
 44
0.0
 45
0.0
 49
-0.125
 74
     4
 75
     0
340
0
 46
0.0
 50
0.0
 44
0.0
 45
0.0
 49
0.125
 74
     4
 75
     0
340
0
 46
0.0
 50
0.0
 44
0.0
 45
0.0
 49
-0.125
 74
     4
 75
     0
340
0
 46
0.0
 50
0.0
 44
0.0
 45
0.0
  0
ENDTAB
  0
TABLE
  2
LAYER
  5
2
330
0
100
AcDbSymbolTable
 70
     3
  0
LAYER
  5
10
330
2
100
AcDbSymbolTableRecord
100
AcDbLayerTableRecord
  2
0
 70
     0
 62
     7
  6
Continuous
370
    -3
390
F
  0
LAYER
  5
2A
330
2
100
AcDbSymbolTableRecord
100
AcDbLayerTableRecord
  2
Default
 70
     0
 62
     7
  6
Continuous
370
    -3
390
F
  0
LAYER
  5
11B
330
2
100
AcDbSymbolTableRecord
100
AcDbLayerTableRecord
  2
BED
 70
     0
 62
     7
  6
Continuous
370
    -3
390
F
  0
ENDTAB
  0
TABLE
  2
STYLE
  5
3
330
0
100
AcDbSymbolTable
 70
     4
  0
STYLE
  5
11
330
3
100
AcDbSymbolTableRecord
100
AcDbTextStyleTableRecord
  2
Standard
 70
     0
 40
0.0
 41
1.0
 50
0.0
 71
     0
 42
0.2
  3
txt
  4

  0
STYLE
  5
110
330
3
100
AcDbSymbolTableRecord
100
AcDbTextStyleTableRecord
  2
SEACAD_arial_ttf
 70
     0
 40
3.5
 41
1.0
 50
0.0
 71
     0
 42
0.2
  3
arial.ttf
  4

  0
STYLE
  5
116
330
3
100
AcDbSymbolTableRecord
100
AcDbTextStyleTableRecord
  2
SEACAD_arial_ttfB
 70
     0
 40
0.2
 41
1.0
 50
0.0
 71
     0
 42
0.2
  3
arial.ttf
  4

  0
STYLE
  5
15F
330
3
100
AcDbSymbolTableRecord
100
AcDbTextStyleTableRecord
  2
SEACAD_semeca1_ttf
 70
     0
 40
0.2
 41
1.0
 50
0.0
 71
     0
 42
0.2
  3
semeca1.ttf
  4

  0
ENDTAB
  0
TABLE
  2
VIEW
  5
6
330
0
100
AcDbSymbolTable
 70
     0
  0
ENDTAB
  0
TABLE
  2
UCS
  5
7
330
0
100
AcDbSymbolTable
 70
     0
  0
ENDTAB
  0
TABLE
  2
APPID
  5
9
330
0
100
AcDbSymbolTable
 70
     1
  0
APPID
  5
12
330
9
100
AcDbSymbolTableRecord
100
AcDbRegAppTableRecord
  2
ACAD
 70
     0
  0
ENDTAB
  0
TABLE
  2
DIMSTYLE
  5
A
330
0
100
AcDbSymbolTable
 70
     2
100
AcDbDimStyleTable
  0
DIMSTYLE
105
27
330
A
100
AcDbSymbolTableRecord
100
AcDbDimStyleTableRecord
  2
Standard
 70
     0
340
11
  0
DIMSTYLE
105
15D
102
{ACAD_REACTORS
330
15E
330
16B
330
177
330
183
330
18F
330
19B
330
1A7
330
1B3
330
1BF
330
1CB
330
1D7
330
1E3
330
1EF
330
1FB
330
207
330
213
330
21F
330
22B
330
237
330
243
330
24F
330
25B
330
267
330
272
330
27C
330
285
330
28E
330
297
330
2A3
330
2AF
330
2BB
330
2C7
330
2D3
330
2DF
102
}
330
A
100
AcDbSymbolTableRecord
100
AcDbDimStyleTableRecord
  2
UOB1
 70
     0
 41
3.5
 42
2.8
 44
1.75
 78
     8
140
3.5
141
1.75
147
1.75
172
     1
173
     1
176
     7
177
     7
178
     7
271
     2
272
     2
278
    44
279
     2
284
     8
340
110
343
158
344
158
  0
ENDTAB
  0
TABLE
  2
BLOCK_RECORD
  5
1
330
0
100
AcDbSymbolTable
 70
    71
  0
BLOCK_RECORD
  5
1F
330
1
100
AcDbSymbolTableRecord
100
AcDbBlockTableRecord
  2
*Model_Space
340
22
  0
BLOCK_RECORD
  5
1B
330
1
100
AcDbSymbolTableRecord
100
AcDbBlockTableRecord
  2
*Paper_Space
340
1E
  0
BLOCK_RECORD
  5
2F
330
1
100
AcDbSymbolTableRecord
100
AcDbBlockTableRecord
  2
SEANNOT_GROUP
340
0
102
{BLKREFS
331
30
102
}
  0
BLOCK_RECORD
  5
36
330
1
100
AcDbSymbolTableRecord
100
AcDbBlockTableRecord
  2
SEANNOT_GROUP1
340
0
102
{BLKREFS
331
37
102
}
  0
BLOCK_RECORD
  5
3C
330
1
100
AcDbSymbolTableRecord
100
AcDbBlockTableRecord
  2
SEANNOT_GROUP2
340
0
102
{BLKREFS
331
3D
102
}
  0
BLOCK_RECORD
  5
42
330
1
100
AcDbSymbolTableRecord
100
AcDbBlockTableRecord
  2
SEANNOT_GROUP3
340
0
102
{BLKREFS
331
43
102
}
  0
BLOCK_RECORD
  5
48
330
1
100
AcDbSymbolTableRecord
100
AcDbBlockTableRecord
  2
SEANNOT_GROUP4
340
0
102
{BLKREFS
331
49
102
}
  0
BLOCK_RECORD
  5
4E
330
1
100
AcDbSymbolTableRecord
100
AcDbBlockTableRecord
  2
SEANNOT_GROUP5
340
0
102
{BLKREFS
331
4F
102
}
  0
BLOCK_RECORD
  5
54
330
1
100
AcDbSymbolTableRecord
100
AcDbBlockTableRecord
  2
SEANNOT_GROUP6
340
0
102
{BLKREFS
331
55
102
}
  0
BLOCK_RECORD
  5
5A
330
1
100
AcDbSymbolTableRecord
100
AcDbBlockTableRecord
  2
SEANNOT_GROUP7
340
0
102
{BLKREFS
331
5B
102
}
  0
BLOCK_RECORD
  5
60
330
1
100
AcDbSymbolTableRecord
100
AcDbBlockTableRecord
  2
SEANNOT_GROUP8
340
0
102
{BLKREFS
331
61
102
}
  0
BLOCK_RECORD
  5
66
330
1
100
AcDbSymbolTableRecord
100
AcDbBlockTableRecord
  2
SEANNOT_GROUP9
340
0
102
{BLKREFS
331
67
102
}
  0
BLOCK_RECORD
  5
6C
330
1
100
AcDbSymbolTableRecord
100
AcDbBlockTableRecord
  2
SEANNOT_GROUP10
340
0
102
{BLKREFS
331
6D
102
}
  0
BLOCK_RECORD
  5
72
330
1
100
AcDbSymbolTableRecord
100
AcDbBlockTableRecord
  2
SEANNOT_GROUP11
340
0
102
{BLKREFS
331
73
102
}
  0
BLOCK_RECORD
  5
78
330
1
100
AcDbSymbolTableRecord
100
AcDbBlockTableRecord
  2
SEANNOT_GROUP12
340
0
102
{BLKREFS
331
79
102
}
  0
BLOCK_RECORD
  5
7E
330
1
100
AcDbSymbolTableRecord
100
AcDbBlockTableRecord
  2
SEANNOT_GROUP13
340
0
102
{BLKREFS
331
7F
102
}
  0
BLOCK_RECORD
  5
84
330
1
100
AcDbSymbolTableRecord
100
AcDbBlockTableRecord
  2
SEANNOT_GROUP14
340
0
102
{BLKREFS
331
85
102
}
  0
BLOCK_RECORD
  5
8A
330
1
100
AcDbSymbolTableRecord
100
AcDbBlockTableRecord
  2
SEANNOT_GROUP15
340
0
102
{BLKREFS
331
8B
102
}
  0
BLOCK_RECORD
  5
90
330
1
100
AcDbSymbolTableRecord
100
AcDbBlockTableRecord
  2
SEANNOT_GROUP16
340
0
102
{BLKREFS
331
91
102
}
  0
BLOCK_RECORD
  5
96
330
1
100
AcDbSymbolTableRecord
100
AcDbBlockTableRecord
  2
SEANNOT_GROUP17
340
0
102
{BLKREFS
331
97
102
}
  0
BLOCK_RECORD
  5
9C
330
1
100
AcDbSymbolTableRecord
100
AcDbBlockTableRecord
  2
SEANNOT_GROUP18
340
0
102
{BLKREFS
331
9D
102
}
  0
BLOCK_RECORD
  5
A2
330
1
100
AcDbSymbolTableRecord
100
AcDbBlockTableRecord
  2
SEANNOT_GROUP19
340
0
102
{BLKREFS
331
A3
102
}
  0
BLOCK_RECORD
  5
A8
330
1
100
AcDbSymbolTableRecord
100
AcDbBlockTableRecord
  2
SEANNOT_GROUP20
340
0
102
{BLKREFS
331
A9
102
}
  0
BLOCK_RECORD
  5
AE
330
1
100
AcDbSymbolTableRecord
100
AcDbBlockTableRecord
  2
SEANNOT_GROUP21
340
0
102
{BLKREFS
331
AF
102
}
  0
BLOCK_RECORD
  5
B4
330
1
100
AcDbSymbolTableRecord
100
AcDbBlockTableRecord
  2
SEANNOT_GROUP22
340
0
102
{BLKREFS
331
B5
102
}
  0
BLOCK_RECORD
  5
BA
330
1
100
AcDbSymbolTableRecord
100
AcDbBlockTableRecord
  2
SEANNOT_GROUP23
340
0
102
{BLKREFS
331
BB
102
}
  0
BLOCK_RECORD
  5
C0
330
1
100
AcDbSymbolTableRecord
100
AcDbBlockTableRecord
  2
SEANNOT_GROUP24
340
0
102
{BLKREFS
331
C1
102
}
  0
BLOCK_RECORD
  5
C6
330
1
100
AcDbSymbolTableRecord
100
AcDbBlockTableRecord
  2
SEANNOT_GROUP25
340
0
102
{BLKREFS
331
C7
102
}
  0
BLOCK_RECORD
  5
CC
330
1
100
AcDbSymbolTableRecord
100
AcDbBlockTableRecord
  2
SEANNOT_GROUP26
340
0
102
{BLKREFS
331
CD
102
}
  0
BLOCK_RECORD
  5
D2
330
1
100
AcDbSymbolTableRecord
100
AcDbBlockTableRecord
  2
SEANNOT_GROUP27
340
0
102
{BLKREFS
331
D3
102
}
  0
BLOCK_RECORD
  5
D8
330
1
100
AcDbSymbolTableRecord
100
AcDbBlockTableRecord
  2
SEANNOT_GROUP28
340
0
102
{BLKREFS
331
D9
102
}
  0
BLOCK_RECORD
  5
DE
330
1
100
AcDbSymbolTableRecord
100
AcDbBlockTableRecord
  2
SEANNOT_GROUP29
340
0
102
{BLKREFS
331
DF
102
}
  0
BLOCK_RECORD
  5
E4
330
1
100
AcDbSymbolTableRecord
100
AcDbBlockTableRecord
  2
SEANNOT_GROUP30
340
0
102
{BLKREFS
331
E5
102
}
  0
BLOCK_RECORD
  5
EA
330
1
100
AcDbSymbolTableRecord
100
AcDbBlockTableRecord
  2
SEANNOT_GROUP31
340
0
102
{BLKREFS
331
EB
102
}
  0
BLOCK_RECORD
  5
F0
330
1
100
AcDbSymbolTableRecord
100
AcDbBlockTableRecord
  2
SEANNOT_GROUP32
340
0
102
{BLKREFS
331
F1
102
}
  0
BLOCK_RECORD
  5
F6
330
1
100
AcDbSymbolTableRecord
100
AcDbBlockTableRecord
  2
SEANNOT_GROUP33
340
0
102
{BLKREFS
331
F7
102
}
  0
BLOCK_RECORD
  5
119
330
1
100
AcDbSymbolTableRecord
100
AcDbBlockTableRecord
  2
SE
340
0
102
{BLKREFS
331
11A
102
}
  0
BLOCK_RECORD
  5
158
330
1
100
AcDbSymbolTableRecord
100
AcDbBlockTableRecord
  2
_SE_FILLED
340
0
  0
BLOCK_RECORD
  5
160
330
1
100
AcDbSymbolTableRecord
100
AcDbBlockTableRecord
  2
DMBLK1
340
0
  0
BLOCK_RECORD
  5
16C
330
1
100
AcDbSymbolTableRecord
100
AcDbBlockTableRecord
  2
DMBLK2
340
0
  0
BLOCK_RECORD
  5
178
330
1
100
AcDbSymbolTableRecord
100
AcDbBlockTableRecord
  2
DMBLK3
340
0
  0
BLOCK_RECORD
  5
184
330
1
100
AcDbSymbolTableRecord
100
AcDbBlockTableRecord
  2
DMBLK4
340
0
  0
BLOCK_RECORD
  5
190
330
1
100
AcDbSymbolTableRecord
100
AcDbBlockTableRecord
  2
DMBLK5
340
0
  0
BLOCK_RECORD
  5
19C
330
1
100
AcDbSymbolTableRecord
100
AcDbBlockTableRecord
  2
DMBLK6
340
0
  0
BLOCK_RECORD
  5
1A8
330
1
100
AcDbSymbolTableRecord
100
AcDbBlockTableRecord
  2
DMBLK7
340
0
  0
BLOCK_RECORD
  5
1B4
330
1
100
AcDbSymbolTableRecord
100
AcDbBlockTableRecord
  2
DMBLK8
340
0
  0
BLOCK_RECORD
  5
1C0
330
1
100
AcDbSymbolTableRecord
100
AcDbBlockTableRecord
  2
DMBLK9
340
0
  0
BLOCK_RECORD
  5
1CC
330
1
100
AcDbSymbolTableRecord
100
AcDbBlockTableRecord
  2
DMBLK10
340
0
  0
BLOCK_RECORD
  5
1D8
330
1
100
AcDbSymbolTableRecord
100
AcDbBlockTableRecord
  2
DMBLK11
340
0
  0
BLOCK_RECORD
  5
1E4
330
1
100
AcDbSymbolTableRecord
100
AcDbBlockTableRecord
  2
DMBLK12
340
0
  0
BLOCK_RECORD
  5
1F0
330
1
100
AcDbSymbolTableRecord
100
AcDbBlockTableRecord
  2
DMBLK13
340
0
  0
BLOCK_RECORD
  5
1FC
330
1
100
AcDbSymbolTableRecord
100
AcDbBlockTableRecord
  2
DMBLK14
340
0
  0
BLOCK_RECORD
  5
208
330
1
100
AcDbSymbolTableRecord
100
AcDbBlockTableRecord
  2
DMBLK15
340
0
  0
BLOCK_RECORD
  5
214
330
1
100
AcDbSymbolTableRecord
100
AcDbBlockTableRecord
  2
DMBLK16
340
0
  0
BLOCK_RECORD
  5
220
330
1
100
AcDbSymbolTableRecord
100
AcDbBlockTableRecord
  2
DMBLK17
340
0
  0
BLOCK_RECORD
  5
22C
330
1
100
AcDbSymbolTableRecord
100
AcDbBlockTableRecord
  2
DMBLK18
340
0
  0
BLOCK_RECORD
  5
238
330
1
100
AcDbSymbolTableRecord
100
AcDbBlockTableRecord
  2
DMBLK19
340
0
  0
BLOCK_RECORD
  5
244
330
1
100
AcDbSymbolTableRecord
100
AcDbBlockTableRecord
  2
DMBLK20
340
0
  0
BLOCK_RECORD
  5
250
330
1
100
AcDbSymbolTableRecord
100
AcDbBlockTableRecord
  2
DMBLK21
340
0
  0
BLOCK_RECORD
  5
25C
330
1
100
AcDbSymbolTableRecord
100
AcDbBlockTableRecord
  2
DMBLK22
340
0
  0
BLOCK_RECORD
  5
268
330
1
100
AcDbSymbolTableRecord
100
AcDbBlockTableRecord
  2
DMBLK23
340
0
  0
BLOCK_RECORD
  5
273
330
1
100
AcDbSymbolTableRecord
100
AcDbBlockTableRecord
  2
DMBLK24
340
0
  0
BLOCK_RECORD
  5
27D
330
1
100
AcDbSymbolTableRecord
100
AcDbBlockTableRecord
  2
DMBLK25
340
0
  0
BLOCK_RECORD
  5
286
330
1
100
AcDbSymbolTableRecord
100
AcDbBlockTableRecord
  2
DMBLK26
340
0
  0
BLOCK_RECORD
  5
28F
330
1
100
AcDbSymbolTableRecord
100
AcDbBlockTableRecord
  2
DMBLK27
340
0
  0
BLOCK_RECORD
  5
298
330
1
100
AcDbSymbolTableRecord
100
AcDbBlockTableRecord
  2
DMBLK28
340
0
  0
BLOCK_RECORD
  5
2A4
330
1
100
AcDbSymbolTableRecord
100
AcDbBlockTableRecord
  2
DMBLK29
340
0
  0
BLOCK_RECORD
  5
2B0
330
1
100
AcDbSymbolTableRecord
100
AcDbBlockTableRecord
  2
DMBLK30
340
0
  0
BLOCK_RECORD
  5
2BC
330
1
100
AcDbSymbolTableRecord
100
AcDbBlockTableRecord
  2
DMBLK31
340
0
  0
BLOCK_RECORD
  5
2C8
330
1
100
AcDbSymbolTableRecord
100
AcDbBlockTableRecord
  2
DMBLK32
340
0
  0
BLOCK_RECORD
  5
2D4
330
1
100
AcDbSymbolTableRecord
100
AcDbBlockTableRecord
  2
DMBLK33
340
0
  0
BLOCK_RECORD
  5
2E0
330
1
100
AcDbSymbolTableRecord
100
AcDbBlockTableRecord
  2
DMBLK34
340
0
  0
ENDTAB
  0
ENDSEC
  0
SECTION
  2
BLOCKS
  0
BLOCK
  5
20
330
1F
100
AcDbEntity
  8
0
100
AcDbBlockBegin
  2
*Model_Space
 70
     0
 71
     0
 10
0.0
 20
0.0
 30
0.0
  3
*Model_Space
  1

  0
ENDBLK
  5
21
330
1F
100
AcDbEntity
  8
0
100
AcDbBlockEnd
  0
BLOCK
  5
1C
330
1B
100
AcDbEntity
 67
     1
  8
0
100
AcDbBlockBegin
  2
*Paper_Space
 70
     0
 71
     0
 10
0.0
 20
0.0
 30
0.0
  3
*Paper_Space
  1

  0
ENDBLK
  5
1D
330
1B
100
AcDbEntity
 67
     1
  8
0
100
AcDbBlockEnd
  0
BLOCK
  5
34
330
2F
100
AcDbEntity
  8
0
100
AcDbBlockBegin
  2
SEANNOT_GROUP
 70
     0
 71
     0
 10
0.0
 20
0.0
 30
0.0
  3
SEANNOT_GROUP
  1

  0
LINE
  5
32
330
2F
100
AcDbEntity
  8
Default
  6
CENTER2
 62
     7
 48
25.4
100
AcDbLine
 10
120.2085699542
 20
409.4703959674
 30
0.0
 11
116.7085698462
 21
409.4703959674
 31
0.0
  0
LINE
  5
33
330
2F
100
AcDbEntity
  8
Default
  6
CENTER2
 62
     7
 48
25.4
100
AcDbLine
 10
118.4585699002
 20
411.2203960214
 30
0.0
 11
118.4585699002
 21
407.7203959134
 31
0.0
  0
ENDBLK
  5
35
330
2F
100
AcDbEntity
  8
0
100
AcDbBlockEnd
  0
BLOCK
  5
3A
330
36
100
AcDbEntity
  8
0
100
AcDbBlockBegin
  2
SEANNOT_GROUP1
 70
     0
 71
     0
 10
0.0
 20
0.0
 30
0.0
  3
SEANNOT_GROUP1
  1

  0
LINE
  5
38
330
36
100
AcDbEntity
  8
Default
  6
CENTER2
 62
     7
 48
25.4
100
AcDbLine
 10
122.0085699542
 20
343.9262400901
 30
0.0
 11
118.5085698462
 21
343.9262400901
 31
0.0
  0
LINE
  5
39
330
36
100
AcDbEntity
  8
Default
  6
CENTER2
 62
     7
 48
25.4
100
AcDbLine
 10
120.2585699002
 20
345.6762401441
 30
0.0
 11
120.2585699002
 21
342.1762400361
 31
0.0
  0
ENDBLK
  5
3B
330
36
100
AcDbEntity
  8
0
100
AcDbBlockEnd
  0
BLOCK
  5
40
330
3C
100
AcDbEntity
  8
0
100
AcDbBlockBegin
  2
SEANNOT_GROUP2
 70
     0
 71
     0
 10
0.0
 20
0.0
 30
0.0
  3
SEANNOT_GROUP2
  1

  0
LINE
  5
3E
330
3C
100
AcDbEntity
  8
Default
  6
CENTER2
 62
     7
 48
25.4
100
AcDbLine
 10
134.0085699542
 20
343.9262400901
 30
0.0
 11
130.5085698462
 21
343.9262400901
 31
0.0
  0
LINE
  5
3F
330
3C
100
AcDbEntity
  8
Default
  6
CENTER2
 62
     7
 48
25.4
100
AcDbLine
 10
132.2585699002
 20
345.6762401441
 30
0.0
 11
132.2585699002
 21
342.1762400361
 31
0.0
  0
ENDBLK
  5
41
330
3C
100
AcDbEntity
  8
0
100
AcDbBlockEnd
  0
BLOCK
  5
46
330
42
100
AcDbEntity
  8
0
100
AcDbBlockBegin
  2
SEANNOT_GROUP3
 70
     0
 71
     0
 10
0.0
 20
0.0
 30
0.0
  3
SEANNOT_GROUP3
  1

  0
LINE
  5
44
330
42
100
AcDbEntity
  8
Default
  6
CENTER2
 62
     7
 48
25.4
100
AcDbLine
 10
142.8359869522
 20
409.4703959674
 30
0.0
 11
139.3359868441
 21
409.4703959674
 31
0.0
  0
LINE
  5
45
330
42
100
AcDbEntity
  8
Default
  6
CENTER2
 62
     7
 48
25.4
100
AcDbLine
 10
141.0859868982
 20
411.2203960214
 30
0.0
 11
141.0859868982
 21
407.7203959134
 31
0.0
  0
ENDBLK
  5
47
330
42
100
AcDbEntity
  8
0
100
AcDbBlockEnd
  0
BLOCK
  5
4C
330
48
100
AcDbEntity
  8
0
100
AcDbBlockBegin
  2
SEANNOT_GROUP4
 70
     0
 71
     0
 10
0.0
 20
0.0
 30
0.0
  3
SEANNOT_GROUP4
  1

  0
LINE
  5
4A
330
48
100
AcDbEntity
  8
Default
  6
CENTER2
 62
     7
 48
25.4
100
AcDbLine
 10
142.8359869522
 20
432.0978129654
 30
0.0
 11
139.3359868441
 21
432.0978129654
 31
0.0
  0
LINE
  5
4B
330
48
100
AcDbEntity
  8
Default
  6
CENTER2
 62
     7
 48
25.4
100
AcDbLine
 10
141.0859868982
 20
433.8478130194
 30
0.0
 11
141.0859868982
 21
430.3478129114
 31
0.0
  0
ENDBLK
  5
4D
330
48
100
AcDbEntity
  8
0
100
AcDbBlockEnd
  0
BLOCK
  5
52
330
4E
100
AcDbEntity
  8
0
100
AcDbBlockBegin
  2
SEANNOT_GROUP5
 70
     0
 71
     0
 10
0.0
 20
0.0
 30
0.0
  3
SEANNOT_GROUP5
  1

  0
LINE
  5
50
330
4E
100
AcDbEntity
  8
Default
  6
CENTER2
 62
     7
 48
25.4
100
AcDbLine
 10
208.3801428294
 20
430.2978129654
 30
0.0
 11
204.8801427214
 21
430.2978129654
 31
0.0
  0
LINE
  5
51
330
4E
100
AcDbEntity
  8
Default
  6
CENTER2
 62
     7
 48
25.4
100
AcDbLine
 10
206.6301427754
 20
432.0478130194
 30
0.0
 11
206.6301427754
 21
428.5478129114
 31
0.0
  0
ENDBLK
  5
53
330
4E
100
AcDbEntity
  8
0
100
AcDbBlockEnd
  0
BLOCK
  5
58
330
54
100
AcDbEntity
  8
0
100
AcDbBlockBegin
  2
SEANNOT_GROUP6
 70
     0
 71
     0
 10
0.0
 20
0.0
 30
0.0
  3
SEANNOT_GROUP6
  1

  0
LINE
  5
56
330
54
100
AcDbEntity
  8
Default
  6
CENTER2
 62
     7
 48
25.4
100
AcDbLine
 10
208.3801428294
 20
418.2978129654
 30
0.0
 11
204.8801427214
 21
418.2978129654
 31
0.0
  0
LINE
  5
57
330
54
100
AcDbEntity
  8
Default
  6
CENTER2
 62
     7
 48
25.4
100
AcDbLine
 10
206.6301427754
 20
420.0478130194
 30
0.0
 11
206.6301427754
 21
416.5478129114
 31
0.0
  0
ENDBLK
  5
59
330
54
100
AcDbEntity
  8
0
100
AcDbBlockEnd
  0
BLOCK
  5
5E
330
5A
100
AcDbEntity
  8
0
100
AcDbBlockBegin
  2
SEANNOT_GROUP7
 70
     0
 71
     0
 10
0.0
 20
0.0
 30
0.0
  3
SEANNOT_GROUP7
  1

  0
LINE
  5
5C
330
5A
100
AcDbEntity
  8
Default
  6
CENTER2
 62
     7
 48
25.4
100
AcDbLine
 10
308.3801428294
 20
430.2978129654
 30
0.0
 11
304.8801427214
 21
430.2978129654
 31
0.0
  0
LINE
  5
5D
330
5A
100
AcDbEntity
  8
Default
  6
CENTER2
 62
     7
 48
25.4
100
AcDbLine
 10
306.6301427754
 20
432.0478130194
 30
0.0
 11
306.6301427754
 21
428.5478129114
 31
0.0
  0
ENDBLK
  5
5F
330
5A
100
AcDbEntity
  8
0
100
AcDbBlockEnd
  0
BLOCK
  5
64
330
60
100
AcDbEntity
  8
0
100
AcDbBlockBegin
  2
SEANNOT_GROUP8
 70
     0
 71
     0
 10
0.0
 20
0.0
 30
0.0
  3
SEANNOT_GROUP8
  1

  0
LINE
  5
62
330
60
100
AcDbEntity
  8
Default
  6
CENTER2
 62
     7
 48
25.4
100
AcDbLine
 10
308.3801428294
 20
418.2978129654
 30
0.0
 11
304.8801427214
 21
418.2978129654
 31
0.0
  0
LINE
  5
63
330
60
100
AcDbEntity
  8
Default
  6
CENTER2
 62
     7
 48
25.4
100
AcDbLine
 10
306.6301427754
 20
420.0478130194
 30
0.0
 11
306.6301427754
 21
416.5478129114
 31
0.0
  0
ENDBLK
  5
65
330
60
100
AcDbEntity
  8
0
100
AcDbBlockEnd
  0
BLOCK
  5
6A
330
66
100
AcDbEntity
  8
0
100
AcDbBlockBegin
  2
SEANNOT_GROUP9
 70
     0
 71
     0
 10
0.0
 20
0.0
 30
0.0
  3
SEANNOT_GROUP9
  1

  0
LINE
  5
68
330
66
100
AcDbEntity
  8
Default
  6
CENTER2
 62
     7
 48
25.4
100
AcDbLine
 10
408.3801428294
 20
430.2978129654
 30
0.0
 11
404.8801427214
 21
430.2978129654
 31
0.0
  0
LINE
  5
69
330
66
100
AcDbEntity
  8
Default
  6
CENTER2
 62
     7
 48
25.4
100
AcDbLine
 10
406.6301427754
 20
432.0478130194
 30
0.0
 11
406.6301427754
 21
428.5478129114
 31
0.0
  0
ENDBLK
  5
6B
330
66
100
AcDbEntity
  8
0
100
AcDbBlockEnd
  0
BLOCK
  5
70
330
6C
100
AcDbEntity
  8
0
100
AcDbBlockBegin
  2
SEANNOT_GROUP10
 70
     0
 71
     0
 10
0.0
 20
0.0
 30
0.0
  3
SEANNOT_GROUP10
  1

  0
LINE
  5
6E
330
6C
100
AcDbEntity
  8
Default
  6
CENTER2
 62
     7
 48
25.4
100
AcDbLine
 10
408.3801428294
 20
418.2978129654
 30
0.0
 11
404.8801427214
 21
418.2978129654
 31
0.0
  0
LINE
  5
6F
330
6C
100
AcDbEntity
  8
Default
  6
CENTER2
 62
     7
 48
25.4
100
AcDbLine
 10
406.6301427754
 20
420.0478130194
 30
0.0
 11
406.6301427754
 21
416.5478129114
 31
0.0
  0
ENDBLK
  5
71
330
6C
100
AcDbEntity
  8
0
100
AcDbBlockEnd
  0
BLOCK
  5
76
330
72
100
AcDbEntity
  8
0
100
AcDbBlockBegin
  2
SEANNOT_GROUP11
 70
     0
 71
     0
 10
0.0
 20
0.0
 30
0.0
  3
SEANNOT_GROUP11
  1

  0
LINE
  5
74
330
72
100
AcDbEntity
  8
Default
  6
CENTER2
 62
     7
 48
25.4
100
AcDbLine
 10
473.9242987067
 20
432.0978129654
 30
0.0
 11
470.4242985987
 21
432.0978129654
 31
0.0
  0
LINE
  5
75
330
72
100
AcDbEntity
  8
Default
  6
CENTER2
 62
     7
 48
25.4
100
AcDbLine
 10
472.1742986527
 20
433.8478130194
 30
0.0
 11
472.1742986527
 21
430.3478129114
 31
0.0
  0
ENDBLK
  5
77
330
72
100
AcDbEntity
  8
0
100
AcDbBlockEnd
  0
BLOCK
  5
7C
330
78
100
AcDbEntity
  8
0
100
AcDbBlockBegin
  2
SEANNOT_GROUP12
 70
     0
 71
     0
 10
0.0
 20
0.0
 30
0.0
  3
SEANNOT_GROUP12
  1

  0
LINE
  5
7A
330
78
100
AcDbEntity
  8
Default
  6
CENTER2
 62
     7
 48
25.4
100
AcDbLine
 10
496.5517157047
 20
409.4703959674
 30
0.0
 11
493.0517155967
 21
409.4703959674
 31
0.0
  0
LINE
  5
7B
330
78
100
AcDbEntity
  8
Default
  6
CENTER2
 62
     7
 48
25.4
100
AcDbLine
 10
494.8017156507
 20
411.2203960214
 30
0.0
 11
494.8017156507
 21
407.7203959134
 31
0.0
  0
ENDBLK
  5
7D
330
78
100
AcDbEntity
  8
0
100
AcDbBlockEnd
  0
BLOCK
  5
82
330
7E
100
AcDbEntity
  8
0
100
AcDbBlockBegin
  2
SEANNOT_GROUP13
 70
     0
 71
     0
 10
0.0
 20
0.0
 30
0.0
  3
SEANNOT_GROUP13
  1

  0
LINE
  5
80
330
7E
100
AcDbEntity
  8
Default
  6
CENTER2
 62
     7
 48
25.4
100
AcDbLine
 10
473.9242987067
 20
409.4703959674
 30
0.0
 11
470.4242985987
 21
409.4703959674
 31
0.0
  0
LINE
  5
81
330
7E
100
AcDbEntity
  8
Default
  6
CENTER2
 62
     7
 48
25.4
100
AcDbLine
 10
472.1742986527
 20
411.2203960214
 30
0.0
 11
472.1742986527
 21
407.7203959134
 31
0.0
  0
ENDBLK
  5
83
330
7E
100
AcDbEntity
  8
0
100
AcDbBlockEnd
  0
BLOCK
  5
88
330
84
100
AcDbEntity
  8
0
100
AcDbBlockBegin
  2
SEANNOT_GROUP14
 70
     0
 71
     0
 10
0.0
 20
0.0
 30
0.0
  3
SEANNOT_GROUP14
  1

  0
LINE
  5
86
330
84
100
AcDbEntity
  8
Default
  6
CENTER2
 62
     7
 48
25.4
100
AcDbLine
 10
494.7517157047
 20
343.9262400901
 30
0.0
 11
491.2517155967
 21
343.9262400901
 31
0.0
  0
LINE
  5
87
330
84
100
AcDbEntity
  8
Default
  6
CENTER2
 62
     7
 48
25.4
100
AcDbLine
 10
493.0017156507
 20
345.6762401441
 30
0.0
 11
493.0017156507
 21
342.1762400361
 31
0.0
  0
ENDBLK
  5
89
330
84
100
AcDbEntity
  8
0
100
AcDbBlockEnd
  0
BLOCK
  5
8E
330
8A
100
AcDbEntity
  8
0
100
AcDbBlockBegin
  2
SEANNOT_GROUP15
 70
     0
 71
     0
 10
0.0
 20
0.0
 30
0.0
  3
SEANNOT_GROUP15
  1

  0
LINE
  5
8C
330
8A
100
AcDbEntity
  8
Default
  6
CENTER2
 62
     7
 48
25.4
100
AcDbLine
 10
482.7517157047
 20
343.9262400901
 30
0.0
 11
479.2517155967
 21
343.9262400901
 31
0.0
  0
LINE
  5
8D
330
8A
100
AcDbEntity
  8
Default
  6
CENTER2
 62
     7
 48
25.4
100
AcDbLine
 10
481.0017156507
 20
345.6762401441
 30
0.0
 11
481.0017156507
 21
342.1762400361
 31
0.0
  0
ENDBLK
  5
8F
330
8A
100
AcDbEntity
  8
0
100
AcDbBlockEnd
  0
BLOCK
  5
94
330
90
100
AcDbEntity
  8
0
100
AcDbBlockBegin
  2
SEANNOT_GROUP16
 70
     0
 71
     0
 10
0.0
 20
0.0
 30
0.0
  3
SEANNOT_GROUP16
  1

  0
LINE
  5
92
330
90
100
AcDbEntity
  8
Default
  6
CENTER2
 62
     7
 48
25.4
100
AcDbLine
 10
482.7517157047
 20
243.9262400901
 30
0.0
 11
479.2517155967
 21
243.9262400901
 31
0.0
  0
LINE
  5
93
330
90
100
AcDbEntity
  8
Default
  6
CENTER2
 62
     7
 48
25.4
100
AcDbLine
 10
481.0017156507
 20
245.6762401441
 30
0.0
 11
481.0017156507
 21
242.1762400361
 31
0.0
  0
ENDBLK
  5
95
330
90
100
AcDbEntity
  8
0
100
AcDbBlockEnd
  0
BLOCK
  5
9A
330
96
100
AcDbEntity
  8
0
100
AcDbBlockBegin
  2
SEANNOT_GROUP17
 70
     0
 71
     0
 10
0.0
 20
0.0
 30
0.0
  3
SEANNOT_GROUP17
  1

  0
LINE
  5
98
330
96
100
AcDbEntity
  8
Default
  6
CENTER2
 62
     7
 48
25.4
100
AcDbLine
 10
494.7517157047
 20
243.9262400901
 30
0.0
 11
491.2517155967
 21
243.9262400901
 31
0.0
  0
LINE
  5
99
330
96
100
AcDbEntity
  8
Default
  6
CENTER2
 62
     7
 48
25.4
100
AcDbLine
 10
493.0017156507
 20
245.6762401441
 30
0.0
 11
493.0017156507
 21
242.1762400361
 31
0.0
  0
ENDBLK
  5
9B
330
96
100
AcDbEntity
  8
0
100
AcDbBlockEnd
  0
BLOCK
  5
A0
330
9C
100
AcDbEntity
  8
0
100
AcDbBlockBegin
  2
SEANNOT_GROUP18
 70
     0
 71
     0
 10
0.0
 20
0.0
 30
0.0
  3
SEANNOT_GROUP18
  1

  0
LINE
  5
9E
330
9C
100
AcDbEntity
  8
Default
  6
CENTER2
 62
     7
 48
25.4
100
AcDbLine
 10
494.7517157047
 20
143.9262400901
 30
0.0
 11
491.2517155967
 21
143.9262400901
 31
0.0
  0
LINE
  5
9F
330
9C
100
AcDbEntity
  8
Default
  6
CENTER2
 62
     7
 48
25.4
100
AcDbLine
 10
493.0017156507
 20
145.6762401441
 30
0.0
 11
493.0017156507
 21
142.1762400361
 31
0.0
  0
ENDBLK
  5
A1
330
9C
100
AcDbEntity
  8
0
100
AcDbBlockEnd
  0
BLOCK
  5
A6
330
A2
100
AcDbEntity
  8
0
100
AcDbBlockBegin
  2
SEANNOT_GROUP19
 70
     0
 71
     0
 10
0.0
 20
0.0
 30
0.0
  3
SEANNOT_GROUP19
  1

  0
LINE
  5
A4
330
A2
100
AcDbEntity
  8
Default
  6
CENTER2
 62
     7
 48
25.4
100
AcDbLine
 10
482.7517157047
 20
143.9262400901
 30
0.0
 11
479.2517155967
 21
143.9262400901
 31
0.0
  0
LINE
  5
A5
330
A2
100
AcDbEntity
  8
Default
  6
CENTER2
 62
     7
 48
25.4
100
AcDbLine
 10
481.0017156507
 20
145.6762401441
 30
0.0
 11
481.0017156507
 21
142.1762400361
 31
0.0
  0
ENDBLK
  5
A7
330
A2
100
AcDbEntity
  8
0
100
AcDbBlockEnd
  0
BLOCK
  5
AC
330
A8
100
AcDbEntity
  8
0
100
AcDbBlockBegin
  2
SEANNOT_GROUP20
 70
     0
 71
     0
 10
0.0
 20
0.0
 30
0.0
  3
SEANNOT_GROUP20
  1

  0
LINE
  5
AA
330
A8
100
AcDbEntity
  8
Default
  6
CENTER2
 62
     7
 48
25.4
100
AcDbLine
 10
473.9242987067
 20
78.3820842128
 30
0.0
 11
470.4242985987
 21
78.3820842128
 31
0.0
  0
LINE
  5
AB
330
A8
100
AcDbEntity
  8
Default
  6
CENTER2
 62
     7
 48
25.4
100
AcDbLine
 10
472.1742986527
 20
80.1320842669
 30
0.0
 11
472.1742986527
 21
76.6320841588
 31
0.0
  0
ENDBLK
  5
AD
330
A8
100
AcDbEntity
  8
0
100
AcDbBlockEnd
  0
BLOCK
  5
B2
330
AE
100
AcDbEntity
  8
0
100
AcDbBlockBegin
  2
SEANNOT_GROUP21
 70
     0
 71
     0
 10
0.0
 20
0.0
 30
0.0
  3
SEANNOT_GROUP21
  1

  0
LINE
  5
B0
330
AE
100
AcDbEntity
  8
Default
  6
CENTER2
 62
     7
 48
25.4
100
AcDbLine
 10
496.5517157047
 20
78.3820842128
 30
0.0
 11
493.0517155967
 21
78.3820842128
 31
0.0
  0
LINE
  5
B1
330
AE
100
AcDbEntity
  8
Default
  6
CENTER2
 62
     7
 48
25.4
100
AcDbLine
 10
494.8017156507
 20
80.1320842669
 30
0.0
 11
494.8017156507
 21
76.6320841588
 31
0.0
  0
ENDBLK
  5
B3
330
AE
100
AcDbEntity
  8
0
100
AcDbBlockEnd
  0
BLOCK
  5
B8
330
B4
100
AcDbEntity
  8
0
100
AcDbBlockBegin
  2
SEANNOT_GROUP22
 70
     0
 71
     0
 10
0.0
 20
0.0
 30
0.0
  3
SEANNOT_GROUP22
  1

  0
LINE
  5
B6
330
B4
100
AcDbEntity
  8
Default
  6
CENTER2
 62
     7
 48
25.4
100
AcDbLine
 10
473.9242987067
 20
55.7546672149
 30
0.0
 11
470.4242985987
 21
55.7546672149
 31
0.0
  0
LINE
  5
B7
330
B4
100
AcDbEntity
  8
Default
  6
CENTER2
 62
     7
 48
25.4
100
AcDbLine
 10
472.1742986527
 20
57.5046672689
 30
0.0
 11
472.1742986527
 21
54.0046671609
 31
0.0
  0
ENDBLK
  5
B9
330
B4
100
AcDbEntity
  8
0
100
AcDbBlockEnd
  0
BLOCK
  5
BE
330
BA
100
AcDbEntity
  8
0
100
AcDbBlockBegin
  2
SEANNOT_GROUP23
 70
     0
 71
     0
 10
0.0
 20
0.0
 30
0.0
  3
SEANNOT_GROUP23
  1

  0
LINE
  5
BC
330
BA
100
AcDbEntity
  8
Default
  6
CENTER2
 62
     7
 48
25.4
100
AcDbLine
 10
408.3801428295
 20
57.5546672149
 30
0.0
 11
404.8801427214
 21
57.5546672149
 31
0.0
  0
LINE
  5
BD
330
BA
100
AcDbEntity
  8
Default
  6
CENTER2
 62
     7
 48
25.4
100
AcDbLine
 10
406.6301427754
 20
59.3046672689
 30
0.0
 11
406.6301427754
 21
55.8046671609
 31
0.0
  0
ENDBLK
  5
BF
330
BA
100
AcDbEntity
  8
0
100
AcDbBlockEnd
  0
BLOCK
  5
C4
330
C0
100
AcDbEntity
  8
0
100
AcDbBlockBegin
  2
SEANNOT_GROUP24
 70
     0
 71
     0
 10
0.0
 20
0.0
 30
0.0
  3
SEANNOT_GROUP24
  1

  0
LINE
  5
C2
330
C0
100
AcDbEntity
  8
Default
  6
CENTER2
 62
     7
 48
25.4
100
AcDbLine
 10
408.3801428295
 20
69.5546672149
 30
0.0
 11
404.8801427214
 21
69.5546672149
 31
0.0
  0
LINE
  5
C3
330
C0
100
AcDbEntity
  8
Default
  6
CENTER2
 62
     7
 48
25.4
100
AcDbLine
 10
406.6301427754
 20
71.3046672689
 30
0.0
 11
406.6301427754
 21
67.8046671609
 31
0.0
  0
ENDBLK
  5
C5
330
C0
100
AcDbEntity
  8
0
100
AcDbBlockEnd
  0
BLOCK
  5
CA
330
C6
100
AcDbEntity
  8
0
100
AcDbBlockBegin
  2
SEANNOT_GROUP25
 70
     0
 71
     0
 10
0.0
 20
0.0
 30
0.0
  3
SEANNOT_GROUP25
  1

  0
LINE
  5
C8
330
C6
100
AcDbEntity
  8
Default
  6
CENTER2
 62
     7
 48
25.4
100
AcDbLine
 10
308.3801428295
 20
69.5546672149
 30
0.0
 11
304.8801427214
 21
69.5546672149
 31
0.0
  0
LINE
  5
C9
330
C6
100
AcDbEntity
  8
Default
  6
CENTER2
 62
     7
 48
25.4
100
AcDbLine
 10
306.6301427754
 20
71.3046672689
 30
0.0
 11
306.6301427754
 21
67.8046671609
 31
0.0
  0
ENDBLK
  5
CB
330
C6
100
AcDbEntity
  8
0
100
AcDbBlockEnd
  0
BLOCK
  5
D0
330
CC
100
AcDbEntity
  8
0
100
AcDbBlockBegin
  2
SEANNOT_GROUP26
 70
     0
 71
     0
 10
0.0
 20
0.0
 30
0.0
  3
SEANNOT_GROUP26
  1

  0
LINE
  5
CE
330
CC
100
AcDbEntity
  8
Default
  6
CENTER2
 62
     7
 48
25.4
100
AcDbLine
 10
308.3801428295
 20
57.5546672149
 30
0.0
 11
304.8801427214
 21
57.5546672149
 31
0.0
  0
LINE
  5
CF
330
CC
100
AcDbEntity
  8
Default
  6
CENTER2
 62
     7
 48
25.4
100
AcDbLine
 10
306.6301427754
 20
59.3046672689
 30
0.0
 11
306.6301427754
 21
55.8046671609
 31
0.0
  0
ENDBLK
  5
D1
330
CC
100
AcDbEntity
  8
0
100
AcDbBlockEnd
  0
BLOCK
  5
D6
330
D2
100
AcDbEntity
  8
0
100
AcDbBlockBegin
  2
SEANNOT_GROUP27
 70
     0
 71
     0
 10
0.0
 20
0.0
 30
0.0
  3
SEANNOT_GROUP27
  1

  0
LINE
  5
D4
330
D2
100
AcDbEntity
  8
Default
  6
CENTER2
 62
     7
 48
25.4
100
AcDbLine
 10
142.8359869522
 20
55.7546672149
 30
0.0
 11
139.3359868441
 21
55.7546672149
 31
0.0
  0
LINE
  5
D5
330
D2
100
AcDbEntity
  8
Default
  6
CENTER2
 62
     7
 48
25.4
100
AcDbLine
 10
141.0859868981
 20
57.5046672689
 30
0.0
 11
141.0859868981
 21
54.0046671609
 31
0.0
  0
ENDBLK
  5
D7
330
D2
100
AcDbEntity
  8
0
100
AcDbBlockEnd
  0
BLOCK
  5
DC
330
D8
100
AcDbEntity
  8
0
100
AcDbBlockBegin
  2
SEANNOT_GROUP28
 70
     0
 71
     0
 10
0.0
 20
0.0
 30
0.0
  3
SEANNOT_GROUP28
  1

  0
LINE
  5
DA
330
D8
100
AcDbEntity
  8
Default
  6
CENTER2
 62
     7
 48
25.4
100
AcDbLine
 10
120.2085699542
 20
78.3820842128
 30
0.0
 11
116.7085698462
 21
78.3820842128
 31
0.0
  0
LINE
  5
DB
330
D8
100
AcDbEntity
  8
Default
  6
CENTER2
 62
     7
 48
25.4
100
AcDbLine
 10
118.4585699002
 20
80.1320842669
 30
0.0
 11
118.4585699002
 21
76.6320841588
 31
0.0
  0
ENDBLK
  5
DD
330
D8
100
AcDbEntity
  8
0
100
AcDbBlockEnd
  0
BLOCK
  5
E2
330
DE
100
AcDbEntity
  8
0
100
AcDbBlockBegin
  2
SEANNOT_GROUP29
 70
     0
 71
     0
 10
0.0
 20
0.0
 30
0.0
  3
SEANNOT_GROUP29
  1

  0
LINE
  5
E0
330
DE
100
AcDbEntity
  8
Default
  6
CENTER2
 62
     7
 48
25.4
100
AcDbLine
 10
142.8359869522
 20
78.3820842128
 30
0.0
 11
139.3359868441
 21
78.3820842128
 31
0.0
  0
LINE
  5
E1
330
DE
100
AcDbEntity
  8
Default
  6
CENTER2
 62
     7
 48
25.4
100
AcDbLine
 10
141.0859868981
 20
80.1320842669
 30
0.0
 11
141.0859868981
 21
76.6320841588
 31
0.0
  0
ENDBLK
  5
E3
330
DE
100
AcDbEntity
  8
0
100
AcDbBlockEnd
  0
BLOCK
  5
E8
330
E4
100
AcDbEntity
  8
0
100
AcDbBlockBegin
  2
SEANNOT_GROUP30
 70
     0
 71
     0
 10
0.0
 20
0.0
 30
0.0
  3
SEANNOT_GROUP30
  1

  0
LINE
  5
E6
330
E4
100
AcDbEntity
  8
Default
  6
CENTER2
 62
     7
 48
25.4
100
AcDbLine
 10
122.0085699542
 20
143.9262400901
 30
0.0
 11
118.5085698462
 21
143.9262400901
 31
0.0
  0
LINE
  5
E7
330
E4
100
AcDbEntity
  8
Default
  6
CENTER2
 62
     7
 48
25.4
100
AcDbLine
 10
120.2585699002
 20
145.6762401441
 30
0.0
 11
120.2585699002
 21
142.1762400361
 31
0.0
  0
ENDBLK
  5
E9
330
E4
100
AcDbEntity
  8
0
100
AcDbBlockEnd
  0
BLOCK
  5
EE
330
EA
100
AcDbEntity
  8
0
100
AcDbBlockBegin
  2
SEANNOT_GROUP31
 70
     0
 71
     0
 10
0.0
 20
0.0
 30
0.0
  3
SEANNOT_GROUP31
  1

  0
LINE
  5
EC
330
EA
100
AcDbEntity
  8
Default
  6
CENTER2
 62
     7
 48
25.4
100
AcDbLine
 10
134.0085699542
 20
143.9262400901
 30
0.0
 11
130.5085698462
 21
143.9262400901
 31
0.0
  0
LINE
  5
ED
330
EA
100
AcDbEntity
  8
Default
  6
CENTER2
 62
     7
 48
25.4
100
AcDbLine
 10
132.2585699002
 20
145.6762401441
 30
0.0
 11
132.2585699002
 21
142.1762400361
 31
0.0
  0
ENDBLK
  5
EF
330
EA
100
AcDbEntity
  8
0
100
AcDbBlockEnd
  0
BLOCK
  5
F4
330
F0
100
AcDbEntity
  8
0
100
AcDbBlockBegin
  2
SEANNOT_GROUP32
 70
     0
 71
     0
 10
0.0
 20
0.0
 30
0.0
  3
SEANNOT_GROUP32
  1

  0
LINE
  5
F2
330
F0
100
AcDbEntity
  8
Default
  6
CENTER2
 62
     7
 48
25.4
100
AcDbLine
 10
122.0085699542
 20
243.9262400901
 30
0.0
 11
118.5085698462
 21
243.9262400901
 31
0.0
  0
LINE
  5
F3
330
F0
100
AcDbEntity
  8
Default
  6
CENTER2
 62
     7
 48
25.4
100
AcDbLine
 10
120.2585699002
 20
245.6762401441
 30
0.0
 11
120.2585699002
 21
242.1762400361
 31
0.0
  0
ENDBLK
  5
F5
330
F0
100
AcDbEntity
  8
0
100
AcDbBlockEnd
  0
BLOCK
  5
FA
330
F6
100
AcDbEntity
  8
0
100
AcDbBlockBegin
  2
SEANNOT_GROUP33
 70
     0
 71
     0
 10
0.0
 20
0.0
 30
0.0
  3
SEANNOT_GROUP33
  1

  0
LINE
  5
F8
330
F6
100
AcDbEntity
  8
Default
  6
CENTER2
 62
     7
 48
25.4
100
AcDbLine
 10
134.0085699542
 20
243.9262400901
 30
0.0
 11
130.5085698462
 21
243.9262400901
 31
0.0
  0
LINE
  5
F9
330
F6
100
AcDbEntity
  8
Default
  6
CENTER2
 62
     7
 48
25.4
100
AcDbLine
 10
132.2585699002
 20
245.6762401441
 30
0.0
 11
132.2585699002
 21
242.1762400361
 31
0.0
  0
ENDBLK
  5
FB
330
F6
100
AcDbEntity
  8
0
100
AcDbBlockEnd
  0
BLOCK
  5
156
330
119
100
AcDbEntity
  8
0
100
AcDbBlockBegin
  2
SE
 70
     0
 71
     0
 10
0.0
 20
0.0
 30
0.0
  3
SE
  1

  0
LINE
  5
11C
330
119
100
AcDbEntity
  8
BED
  6
Continuous
 62
     7
 48
25.4
100
AcDbLine
 10
107.7585699002
 20
409.4703959674
 30
0.0
 11
107.7585699002
 21
78.3820842128
 31
0.0
  0
ARC
  5
11D
330
119
100
AcDbEntity
  8
BED
  6
Continuous
 62
     7
 48
25.4
100
AcDbCircle
 10
118.4585699002
 20
78.3820842128
 30
0.0
 40
10.7
100
AcDbArc
 50
180.0
 51
225.0
  0
LINE
  5
11E
330
119
100
AcDbEntity
  8
BED
  6
Continuous
 62
     7
 48
25.4
100
AcDbLine
 10
110.8925273415
 20
70.8160416541
 30
0.0
 11
133.5199443395
 21
48.1886246562
 31
0.0
  0
ARC
  5
11F
330
119
100
AcDbEntity
  8
BED
  6
Continuous
 62
     7
 48
25.4
100
AcDbCircle
 10
141.0859868981
 20
55.7546672149
 30
0.0
 40
10.7
100
AcDbArc
 50
225.0
 51
270.0
  0
LINE
  5
120
330
119
100
AcDbEntity
  8
BED
  6
Continuous
 62
     7
 48
25.4
100
AcDbLine
 10
141.0859868981
 20
45.0546672149
 30
0.0
 11
162.7585699002
 21
45.0546672149
 31
0.0
  0
ARC
  5
121
330
119
100
AcDbEntity
  8
BED
  6
Continuous
 62
     7
 48
25.4
100
AcDbCircle
 10
472.1742986527
 20
55.7546672149
 30
0.0
 40
10.69999999999999
100
AcDbArc
 50
270.0
 51
315.0
  0
LINE
  5
122
330
119
100
AcDbEntity
  8
BED
  6
Continuous
 62
     7
 48
25.4
100
AcDbLine
 10
479.7403412114
 20
48.1886246562
 30
0.0
 11
502.3677582094
 21
70.8160416541
 31
0.0
  0
ARC
  5
123
330
119
100
AcDbEntity
  8
BED
  6
Continuous
 62
     7
 48
25.4
100
AcDbCircle
 10
494.8017156507
 20
78.3820842128
 30
0.0
 40
10.70000000000004
100
AcDbArc
 50
315.0
 51
360.0
  0
LINE
  5
124
330
119
100
AcDbEntity
  8
BED
  6
Continuous
 62
     7
 48
25.4
100
AcDbLine
 10
505.5017156507
 20
78.3820842128
 30
0.0
 11
505.5017156507
 21
409.4703959674
 31
0.0
  0
ARC
  5
125
330
119
100
AcDbEntity
  8
BED
  6
Continuous
 62
     7
 48
25.4
100
AcDbCircle
 10
494.8017156507
 20
409.4703959674
 30
0.0
 40
10.69999999999999
100
AcDbArc
 50
0.0
 51
45.0
  0
LINE
  5
126
330
119
100
AcDbEntity
  8
BED
  6
Continuous
 62
     7
 48
25.4
100
AcDbLine
 10
502.3677582094
 20
417.0364385261
 30
0.0
 11
479.7403412114
 21
439.6638555241
 31
0.0
  0
ARC
  5
127
330
119
100
AcDbEntity
  8
BED
  6
Continuous
 62
     7
 48
25.4
100
AcDbCircle
 10
472.1742986527
 20
432.0978129654
 30
0.0
 40
10.7
100
AcDbArc
 50
45.0
 51
90.0
  0
LINE
  5
128
330
119
100
AcDbEntity
  8
BED
  6
Continuous
 62
     7
 48
25.4
100
AcDbLine
 10
472.1742986527
 20
442.7978129654
 30
0.0
 11
141.0859868982
 21
442.7978129654
 31
0.0
  0
ARC
  5
129
330
119
100
AcDbEntity
  8
BED
  6
Continuous
 62
     7
 48
25.4
100
AcDbCircle
 10
141.0859868981
 20
432.0978129654
 30
0.0
 40
10.7
100
AcDbArc
 50
90.0
 51
135.0
  0
LINE
  5
12A
330
119
100
AcDbEntity
  8
BED
  6
Continuous
 62
     7
 48
25.4
100
AcDbLine
 10
133.5199443395
 20
439.6638555241
 30
0.0
 11
110.8925273415
 21
417.0364385261
 31
0.0
  0
ARC
  5
12B
330
119
100
AcDbEntity
  8
BED
  6
Continuous
 62
     7
 48
25.4
100
AcDbCircle
 10
118.4585699002
 20
409.4703959674
 30
0.0
 40
10.7
100
AcDbArc
 50
135.0
 51
180.0
  0
CIRCLE
  5
12C
330
119
100
AcDbEntity
  8
BED
  6
Continuous
 62
     7
 48
25.4
100
AcDbCircle
 10
118.4585699002
 20
409.4703959674
 30
0.0
 40
3.500000000000003
  0
CIRCLE
  5
12D
330
119
100
AcDbEntity
  8
BED
  6
Continuous
 62
     7
 48
25.4
100
AcDbCircle
 10
141.0859868982
 20
409.4703959674
 30
0.0
 40
3.500000000000003
  0
CIRCLE
  5
12E
330
119
100
AcDbEntity
  8
BED
  6
Continuous
 62
     7
 48
25.4
100
AcDbCircle
 10
141.0859868982
 20
432.0978129654
 30
0.0
 40
3.500000000000003
  0
CIRCLE
  5
12F
330
119
100
AcDbEntity
  8
BED
  6
Continuous
 62
     7
 48
25.4
100
AcDbCircle
 10
472.1742986527
 20
432.0978129654
 30
0.0
 40
3.500000000000003
  0
CIRCLE
  5
130
330
119
100
AcDbEntity
  8
BED
  6
Continuous
 62
     7
 48
25.4
100
AcDbCircle
 10
472.1742986527
 20
409.4703959674
 30
0.0
 40
3.500000000000003
  0
CIRCLE
  5
131
330
119
100
AcDbEntity
  8
BED
  6
Continuous
 62
     7
 48
25.4
100
AcDbCircle
 10
494.8017156507
 20
409.4703959674
 30
0.0
 40
3.500000000000003
  0
CIRCLE
  5
132
330
119
100
AcDbEntity
  8
BED
  6
Continuous
 62
     7
 48
25.4
100
AcDbCircle
 10
472.1742986527
 20
55.7546672149
 30
0.0
 40
3.500000000000003
  0
CIRCLE
  5
133
330
119
100
AcDbEntity
  8
BED
  6
Continuous
 62
     7
 48
25.4
100
AcDbCircle
 10
494.8017156507
 20
78.3820842128
 30
0.0
 40
3.500000000000003
  0
CIRCLE
  5
134
330
119
100
AcDbEntity
  8
BED
  6
Continuous
 62
     7
 48
25.4
100
AcDbCircle
 10
141.0859868981
 20
55.7546672149
 30
0.0
 40
3.500000000000003
  0
CIRCLE
  5
135
330
119
100
AcDbEntity
  8
BED
  6
Continuous
 62
     7
 48
25.4
100
AcDbCircle
 10
141.0859868981
 20
78.3820842128
 30
0.0
 40
3.500000000000003
  0
CIRCLE
  5
136
330
119
100
AcDbEntity
  8
BED
  6
Continuous
 62
     7
 48
25.4
100
AcDbCircle
 10
118.4585699002
 20
78.3820842128
 30
0.0
 40
3.500000000000003
  0
CIRCLE
  5
137
330
119
100
AcDbEntity
  8
BED
  6
Continuous
 62
     7
 48
25.4
100
AcDbCircle
 10
472.1742986527
 20
78.3820842128
 30
0.0
 40
3.500000000000003
  0
CIRCLE
  5
138
330
119
100
AcDbEntity
  8
BED
  6
Continuous
 62
     7
 48
25.4
100
AcDbCircle
 10
481.0017156507
 20
143.9262400901
 30
0.0
 40
2.700000000000002
  0
CIRCLE
  5
139
330
119
100
AcDbEntity
  8
BED
  6
Continuous
 62
     7
 48
25.4
100
AcDbCircle
 10
493.0017156507
 20
343.9262400901
 30
0.0
 40
2.700000000000002
  0
CIRCLE
  5
13A
330
119
100
AcDbEntity
  8
BED
  6
Continuous
 62
     7
 48
25.4
100
AcDbCircle
 10
481.0017156507
 20
343.9262400901
 30
0.0
 40
2.700000000000002
  0
CIRCLE
  5
13B
330
119
100
AcDbEntity
  8
BED
  6
Continuous
 62
     7
 48
25.4
100
AcDbCircle
 10
306.6301427754
 20
57.5546672149
 30
0.0
 40
2.700000000000002
  0
CIRCLE
  5
13C
330
119
100
AcDbEntity
  8
BED
  6
Continuous
 62
     7
 48
25.4
100
AcDbCircle
 10
306.6301427754
 20
69.5546672149
 30
0.0
 40
2.700000000000002
  0
CIRCLE
  5
13D
330
119
100
AcDbEntity
  8
BED
  6
Continuous
 62
     7
 48
25.4
100
AcDbCircle
 10
406.6301427754
 20
57.5546672149
 30
0.0
 40
2.700000000000002
  0
CIRCLE
  5
13E
330
119
100
AcDbEntity
  8
BED
  6
Continuous
 62
     7
 48
25.4
100
AcDbCircle
 10
406.6301427754
 20
69.5546672149
 30
0.0
 40
2.700000000000002
  0
CIRCLE
  5
13F
330
119
100
AcDbEntity
  8
BED
  6
Continuous
 62
     7
 48
25.4
100
AcDbCircle
 10
120.2585699002
 20
243.9262400901
 30
0.0
 40
2.700000000000002
  0
CIRCLE
  5
140
330
119
100
AcDbEntity
  8
BED
  6
Continuous
 62
     7
 48
25.4
100
AcDbCircle
 10
132.2585699002
 20
243.9262400901
 30
0.0
 40
2.700000000000002
  0
CIRCLE
  5
141
330
119
100
AcDbEntity
  8
BED
  6
Continuous
 62
     7
 48
25.4
100
AcDbCircle
 10
120.2585699002
 20
343.9262400901
 30
0.0
 40
2.700000000000002
  0
CIRCLE
  5
142
330
119
100
AcDbEntity
  8
BED
  6
Continuous
 62
     7
 48
25.4
100
AcDbCircle
 10
132.2585699002
 20
343.9262400901
 30
0.0
 40
2.700000000000002
  0
CIRCLE
  5
143
330
119
100
AcDbEntity
  8
BED
  6
Continuous
 62
     7
 48
25.4
100
AcDbCircle
 10
120.2585699002
 20
143.9262400901
 30
0.0
 40
2.700000000000002
  0
CIRCLE
  5
144
330
119
100
AcDbEntity
  8
BED
  6
Continuous
 62
     7
 48
25.4
100
AcDbCircle
 10
132.2585699002
 20
143.9262400901
 30
0.0
 40
2.700000000000002
  0
CIRCLE
  5
145
330
119
100
AcDbEntity
  8
BED
  6
Continuous
 62
     7
 48
25.4
100
AcDbCircle
 10
306.6301427754
 20
430.2978129654
 30
0.0
 40
2.700000000000002
  0
CIRCLE
  5
146
330
119
100
AcDbEntity
  8
BED
  6
Continuous
 62
     7
 48
25.4
100
AcDbCircle
 10
306.6301427754
 20
418.2978129654
 30
0.0
 40
2.700000000000002
  0
CIRCLE
  5
147
330
119
100
AcDbEntity
  8
BED
  6
Continuous
 62
     7
 48
25.4
100
AcDbCircle
 10
406.6301427754
 20
430.2978129654
 30
0.0
 40
2.700000000000002
  0
CIRCLE
  5
148
330
119
100
AcDbEntity
  8
BED
  6
Continuous
 62
     7
 48
25.4
100
AcDbCircle
 10
406.6301427754
 20
418.2978129654
 30
0.0
 40
2.700000000000002
  0
CIRCLE
  5
149
330
119
100
AcDbEntity
  8
BED
  6
Continuous
 62
     7
 48
25.4
100
AcDbCircle
 10
493.0017156507
 20
243.9262400901
 30
0.0
 40
2.700000000000002
  0
CIRCLE
  5
14A
330
119
100
AcDbEntity
  8
BED
  6
Continuous
 62
     7
 48
25.4
100
AcDbCircle
 10
481.0017156507
 20
243.9262400901
 30
0.0
 40
2.700000000000002
  0
CIRCLE
  5
14B
330
119
100
AcDbEntity
  8
BED
  6
Continuous
 62
     7
 48
25.4
100
AcDbCircle
 10
206.6301427754
 20
430.2978129654
 30
0.0
 40
2.700000000000002
  0
CIRCLE
  5
14C
330
119
100
AcDbEntity
  8
BED
  6
Continuous
 62
     7
 48
25.4
100
AcDbCircle
 10
206.6301427754
 20
418.2978129654
 30
0.0
 40
2.700000000000002
  0
CIRCLE
  5
14D
330
119
100
AcDbEntity
  8
BED
  6
Continuous
 62
     7
 48
25.4
100
AcDbCircle
 10
493.0017156507
 20
143.9262400901
 30
0.0
 40
2.700000000000002
  0
LINE
  5
14E
330
119
100
AcDbEntity
  8
BED
  6
Continuous
 62
     7
 48
25.4
100
AcDbLine
 10
177.7585699002
 20
115.0546672149
 30
0.0
 11
277.7585699002
 21
115.0546672149
 31
0.0
  0
ARC
  5
14F
330
119
100
AcDbEntity
  8
BED
  6
Continuous
 62
     7
 48
25.4
100
AcDbCircle
 10
177.7585699002
 20
105.0546672149
 30
0.0
 40
10.00000000000001
100
AcDbArc
 50
90.0
 51
180.0
  0
LINE
  5
150
330
119
100
AcDbEntity
  8
BED
  6
Continuous
 62
     7
 48
25.4
100
AcDbLine
 10
287.7585699002
 20
105.0546672149
 30
0.0
 11
287.7585699002
 21
50.0546672149
 31
0.0
  0
ARC
  5
151
330
119
100
AcDbEntity
  8
BED
  6
Continuous
 62
     7
 48
25.4
100
AcDbCircle
 10
277.7585699002
 20
105.0546672149
 30
0.0
 40
10.00000000000001
100
AcDbArc
 50
0.0
 51
90.0
  0
LINE
  5
152
330
119
100
AcDbEntity
  8
BED
  6
Continuous
 62
     7
 48
25.4
100
AcDbLine
 10
167.7585699002
 20
50.0546672149
 30
0.0
 11
167.7585699002
 21
105.0546672149
 31
0.0
  0
ARC
  5
153
330
119
100
AcDbEntity
  8
BED
  6
Continuous
 62
     7
 48
25.4
100
AcDbCircle
 10
162.7585699002
 20
50.0546672149
 30
0.0
 40
5.000000000000004
100
AcDbArc
 50
270.0
 51
360.0
  0
LINE
  5
154
330
119
100
AcDbEntity
  8
BED
  6
Continuous
 62
     7
 48
25.4
100
AcDbLine
 10
292.7585699002
 20
45.0546672149
 30
0.0
 11
472.1742986527
 21
45.0546672149
 31
0.0
  0
ARC
  5
155
330
119
100
AcDbEntity
  8
BED
  6
Continuous
 62
     7
 48
25.4
100
AcDbCircle
 10
292.7585699002
 20
50.0546672149
 30
0.0
 40
5.000000000000004
100
AcDbArc
 50
180.0
 51
270.0
  0
ENDBLK
  5
157
330
119
100
AcDbEntity
  8
0
100
AcDbBlockEnd
  0
BLOCK
  5
15B
330
158
100
AcDbEntity
  8
0
100
AcDbBlockBegin
  2
_SE_FILLED
 70
     0
 71
     0
 10
0.0
 20
0.0
 30
0.0
  3
_SE_FILLED
  1

  0
SOLID
  5
159
330
158
100
AcDbEntity
  8
0
100
AcDbTrace
 10
0.0
 20
0.0
 30
0.0
 11
-1.0
 21
-0.1665
 31
0.0
 12
-1.0
 22
0.1665
 32
0.0
 13
0.0
 23
0.0
 33
0.0
  0
LINE
  5
15A
330
158
100
AcDbEntity
  8
0
100
AcDbLine
 10
0.0
 20
0.0
 30
0.0
 11
-1.0
 21
0.0
 31
0.0
  0
ENDBLK
  5
15C
330
158
100
AcDbEntity
  8
0
100
AcDbBlockEnd
  0
BLOCK
  5
169
330
160
100
AcDbEntity
  8
0
100
AcDbBlockBegin
  2
DMBLK1
 70
     0
 71
     0
 10
0.0
 20
0.0
 30
0.0
  3
DMBLK1
  1

  0
LINE
  5
161
330
160
100
AcDbEntity
  8
Default
  6
Continuous
 62
     7
 48
25.4
100
AcDbLine
 10
132.9280472443
 20
416.0808441475
 30
0.0
 11
143.805300228
 21
407.26691315
 31
0.0
  0
LINE
  5
162
330
160
100
AcDbEntity
  8
Default
  6
Continuous
 62
     7
 48
25.4
100
AcDbLine
 10
143.8053000602
 20
407.2669132861
 30
0.0
 11
164.0913841903
 21
390.8289260481
 31
0.0
  0
HATCH
  5
163
330
160
100
AcDbEntity
  8
Default
  6
Continuous
 62
     7
 48
25.4
100
AcDbHatch
 10
0.0
 20
0.0
 30
0.0
210
0.0
220
0.0
230
1.0
  2
SOLID
 70
     1
 71
     0
 91
        1
 92
        1
 93
        3
 72
     1
 10
136.0146076151077
 20
414.3305802724366
 11
135.2801133653222
 21
413.4241425237913
 72
     1
 10
135.2801133653222
 20
413.4241425237913
 11
138.3666737361507
 21
411.6738786487574
 72
     1
 10
138.3666737361507
 20
411.6738786487574
 11
136.0146076151077
 21
414.3305802724366
 97
        0
 75
     0
 76
     1
 98
        0
  0
LWPOLYLINE
  5
164
330
160
100
AcDbEntity
  8
Default
  6
Continuous
 62
     7
 48
25.4
370
    20
100
AcDbPolyline
 90
        4
 70
     1
 43
0.0
 10
136.0146076151
 20
414.3305802724
 10
138.3666737362
 20
411.6738786488
 10
135.2801133653
 20
413.4241425238
 10
136.0146076151
 20
414.3305802724
  0
HATCH
  5
165
330
160
100
AcDbEntity
  8
Default
  6
Continuous
 62
     7
 48
25.4
100
AcDbHatch
 10
0.0
 20
0.0
 30
0.0
210
0.0
220
0.0
230
1.0
  2
SOLID
 70
     1
 71
     0
 91
        1
 92
        1
 93
        3
 72
     1
 10
146.8918604309786
 20
405.5166494110388
 11
143.80530006015
 21
407.2669132860727
 72
     1
 10
143.80530006015
 20
407.2669132860727
 11
146.1573661811931
 21
404.6102116623935
 72
     1
 10
146.1573661811931
 20
404.6102116623935
 11
146.8918604309786
 21
405.5166494110388
 97
        0
 75
     0
 76
     1
 98
        0
  0
LWPOLYLINE
  5
166
330
160
100
AcDbEntity
  8
Default
  6
Continuous
 62
     7
 48
25.4
370
    20
100
AcDbPolyline
 90
        4
 70
     1
 43
0.0
 10
146.891860431
 20
405.516649411
 10
143.8053000602
 20
407.2669132861
 10
146.1573661812
 20
404.6102116624
 10
146.891860431
 20
405.516649411
  0
TEXT
  5
167
330
160
100
AcDbEntity
  8
Default
  6
Continuous
 62
     7
 48
25.4
100
AcDbText
 10
157.2274634134
 20
397.5170231794
 30
0.0
 40
3.5
  1
O
 50
320.9818545172
  7
SEACAD_semeca1_ttf
 11
159.4309460948
 21
400.2363363414
 31
0.0
100
AcDbText
 73
     3
  0
TEXT
  5
168
330
160
100
AcDbEntity
  8
Default
  6
Continuous
 62
     7
 48
25.4
100
AcDbText
 10
161.9600224603
 20
393.6821901621
 30
0.0
 40
3.5
  1
7
 50
320.9818545172
  7
SEACAD_arial_ttf
 11
164.1635051416
 21
396.4015033241
 31
0.0
100
AcDbText
 73
     3
  0
ENDBLK
  5
16A
330
160
100
AcDbEntity
  8
0
100
AcDbBlockEnd
  0
BLOCK
  5
175
330
16C
100
AcDbEntity
  8
0
100
AcDbBlockBegin
  2
DMBLK2
 70
     0
 71
     0
 10
0.0
 20
0.0
 30
0.0
  3
DMBLK2
  1

  0
LINE
  5
16D
330
16C
100
AcDbEntity
  8
Default
  6
Continuous
 62
     7
 48
25.4
100
AcDbLine
 10
125.4629657278
 20
337.0045518478
 30
0.0
 11
134.1501298804
 21
345.8528956373
 31
0.0
  0
LINE
  5
16E
330
16C
100
AcDbEntity
  8
Default
  6
Continuous
 62
     7
 48
25.4
100
AcDbLine
 10
134.1501297823
 20
345.8528955373
 30
0.0
 11
150.2858950785
 21
362.2880400952
 31
0.0
  0
HATCH
  5
16F
330
16C
100
AcDbEntity
  8
Default
  6
Continuous
 62
     7
 48
25.4
100
AcDbHatch
 10
0.0
 20
0.0
 30
0.0
210
0.0
220
0.0
230
1.0
  2
SOLID
 70
     1
 71
     0
 91
        1
 92
        1
 93
        3
 72
     1
 10
127.4987351399952
 20
339.9107386028741
 11
128.3312406058473
 21
339.0933978878331
 72
     1
 10
128.3312406058473
 20
339.0933978878331
 11
130.3670100180439
 21
341.9995846429098
 72
     1
 10
130.3670100180439
 20
341.9995846429098
 11
127.4987351399952
 21
339.9107386028741
 97
        0
 75
     0
 76
     1
 98
        0
  0
LWPOLYLINE
  5
170
330
16C
100
AcDbEntity
  8
Default
  6
Continuous
 62
     7
 48
25.4
370
    20
100
AcDbPolyline
 90
        4
 70
     1
 43
0.0
 10
127.49873514
 20
339.9107386029
 10
130.367010018
 20
341.9995846429
 10
128.3312406058
 20
339.0933978878
 10
127.49873514
 20
339.9107386029
  0
HATCH
  5
171
330
16C
100
AcDbEntity
  8
Default
  6
Continuous
 62
     7
 48
25.4
100
AcDbHatch
 10
0.0
 20
0.0
 30
0.0
210
0.0
220
0.0
230
1.0
  2
SOLID
 70
     1
 71
     0
 91
        1
 92
        1
 93
        3
 72
     1
 10
136.1858991945143
 20
348.7590822924201
 11
134.1501297823178
 21
345.8528955373434
 72
     1
 10
134.1501297823178
 20
345.8528955373434
 11
137.0184046603664
 21
347.9417415773792
 72
     1
 10
137.0184046603664
 20
347.9417415773792
 11
136.1858991945143
 21
348.7590822924201
 97
        0
 75
     0
 76
     1
 98
        0
  0
LWPOLYLINE
  5
172
330
16C
100
AcDbEntity
  8
Default
  6
Continuous
 62
     7
 48
25.4
370
    20
100
AcDbPolyline
 90
        4
 70
     1
 43
0.0
 10
136.1858991945
 20
348.7590822924
 10
134.1501297823
 20
345.8528955373
 10
137.0184046604
 20
347.9417415774
 10
136.1858991945
 20
348.7590822924
  0
TEXT
  5
173
330
16C
100
AcDbEntity
  8
Default
  6
Continuous
 62
     7
 48
25.4
100
AcDbText
 10
140.6349857435
 20
353.7070392006
 30
0.0
 40
3.5
  1
O
 50
45.5266259127
  7
SEACAD_semeca1_ttf
 11
138.137469423
 21
356.1590612701
 31
0.0
100
AcDbText
 73
     3
  0
TEXT
  5
174
330
16C
100
AcDbEntity
  8
Default
  6
Continuous
 62
     7
 48
25.4
100
AcDbText
 10
144.9023645029
 20
358.0535939198
 30
0.0
 40
3.5
  1
5,4
 50
45.5266259127
  7
SEACAD_arial_ttf
 11
142.4048481825
 21
360.5056159892
 31
0.0
100
AcDbText
 73
     3
  0
ENDBLK
  5
176
330
16C
100
AcDbEntity
  8
0
100
AcDbBlockEnd
  0
BLOCK
  5
181
330
178
100
AcDbEntity
  8
0
100
AcDbBlockBegin
  2
DMBLK3
 70
     0
 71
     0
 10
0.0
 20
0.0
 30
0.0
  3
DMBLK3
  1

  0
LINE
  5
179
330
178
100
AcDbEntity
  8
Default
  6
Continuous
 62
     7
 48
25.4
100
AcDbLine
 10
213.2520087271
 20
425.3858941944
 30
0.0
 11
204.7869429199
 21
416.3248418432
 31
0.0
  0
LINE
  5
17A
330
178
100
AcDbEntity
  8
Default
  6
Continuous
 62
     7
 48
25.4
100
AcDbLine
 10
204.7869430155
 20
416.3248419456
 30
0.0
 11
186.8445396517
 21
397.1191960726
 31
0.0
  0
HATCH
  5
17B
330
178
100
AcDbEntity
  8
Default
  6
Continuous
 62
     7
 48
25.4
100
AcDbHatch
 10
0.0
 20
0.0
 30
0.0
210
0.0
220
0.0
230
1.0
  2
SOLID
 70
     1
 71
     0
 91
        1
 92
        1
 93
        3
 72
     1
 10
211.2889348153486
 20
422.4301169071573
 11
210.436416447143
 21
423.2265612724518
 72
     1
 10
210.4364164471431
 20
423.2265612724518
 11
208.4733425353625
 21
420.270783985188
 72
     1
 10
208.4733425353625
 20
420.270783985188
 11
211.2889348153486
 21
422.4301169071573
 97
        0
 75
     0
 76
     1
 98
        0
  0
LWPOLYLINE
  5
17C
330
178
100
AcDbEntity
  8
Default
  6
Continuous
 62
     7
 48
25.4
370
    20
100
AcDbPolyline
 90
        4
 70
     1
 43
0.0
 10
211.2889348153
 20
422.4301169072
 10
208.4733425354
 20
420.2707839852
 10
210.4364164471
 20
423.2265612725
 10
211.2889348153
 20
422.4301169072
  0
HATCH
  5
17D
330
178
100
AcDbEntity
  8
Default
  6
Continuous
 62
     7
 48
25.4
100
AcDbHatch
 10
0.0
 20
0.0
 30
0.0
210
0.0
220
0.0
230
1.0
  2
SOLID
 70
     1
 71
     0
 91
        1
 92
        1
 93
        3
 72
     1
 10
202.8238691037203
 20
413.3690646583138
 11
204.7869430155008
 21
416.3248419455776
 72
     1
 10
204.7869430155008
 20
416.3248419455776
 11
201.9713507355147
 21
414.1655090236083
 72
     1
 10
201.9713507355147
 20
414.1655090236083
 11
202.8238691037203
 21
413.3690646583138
 97
        0
 75
     0
 76
     1
 98
        0
  0
LWPOLYLINE
  5
17E
330
178
100
AcDbEntity
  8
Default
  6
Continuous
 62
     7
 48
25.4
370
    20
100
AcDbPolyline
 90
        4
 70
     1
 43
0.0
 10
202.8238691037
 20
413.3690646583
 10
204.7869430155
 20
416.3248419456
 10
201.9713507355
 20
414.1655090236
 10
202.8238691037
 20
413.3690646583
  0
TEXT
  5
17F
330
178
100
AcDbEntity
  8
Default
  6
Continuous
 62
     7
 48
25.4
100
AcDbText
 10
187.0414176696
 20
398.6116738189
 30
0.0
 40
3.5
  1
O
 50
46.9476281002
  7
SEACAD_semeca1_ttf
 11
184.4838626439
 21
401.001006841
 31
0.0
100
AcDbText
 73
     3
  0
TEXT
  5
180
330
178
100
AcDbEntity
  8
Default
  6
Continuous
 62
     7
 48
25.4
100
AcDbText
 10
191.1996954905
 20
403.0627169513
 30
0.0
 40
3.5
  1
5,4
 50
46.9476281002
  7
SEACAD_arial_ttf
 11
188.6421404649
 21
405.4520499734
 31
0.0
100
AcDbText
 73
     3
  0
ENDBLK
  5
182
330
178
100
AcDbEntity
  8
0
100
AcDbBlockEnd
  0
BLOCK
  5
18D
330
184
100
AcDbEntity
  8
0
100
AcDbBlockBegin
  2
DMBLK4
 70
     0
 71
     0
 10
0.0
 20
0.0
 30
0.0
  3
DMBLK4
  1

  0
LINE
  5
185
330
184
100
AcDbEntity
  8
Default
  6
Continuous
 62
     7
 48
25.4
100
AcDbLine
 10
314.0972445913
 20
424.4891290341
 30
0.0
 11
304.5516710744
 21
416.5744568952
 31
0.0
  0
LINE
  5
186
330
184
100
AcDbEntity
  8
Default
  6
Continuous
 62
     7
 48
25.4
100
AcDbLine
 10
304.5516711822
 20
416.5744569846
 30
0.0
 11
290.156272178
 21
404.6385724383
 31
0.0
  0
HATCH
  5
187
330
184
100
AcDbEntity
  8
Default
  6
Continuous
 62
     7
 48
25.4
100
AcDbHatch
 10
0.0
 20
0.0
 30
0.0
210
0.0
220
0.0
230
1.0
  2
SOLID
 70
     1
 71
     0
 91
        1
 92
        1
 93
        3
 72
     1
 10
311.7752594873108
 20
421.8060964715352
 11
311.0305994726509
 21
422.704201508657
 72
     1
 10
311.0305994726508
 20
422.704201508657
 11
308.7086143686152
 21
420.021168946116
 72
     1
 10
308.7086143686153
 20
420.021168946116
 11
311.7752594873108
 21
421.8060964715352
 97
        0
 75
     0
 76
     1
 98
        0
  0
LWPOLYLINE
  5
188
330
184
100
AcDbEntity
  8
Default
  6
Continuous
 62
     7
 48
25.4
370
    20
100
AcDbPolyline
 90
        4
 70
     1
 43
0.0
 10
311.7752594873
 20
421.8060964715
 10
308.7086143686
 20
420.0211689461
 10
311.0305994727
 20
422.7042015087
 10
311.7752594873
 20
421.8060964715
  0
HATCH
  5
189
330
184
100
AcDbEntity
  8
Default
  6
Continuous
 62
     7
 48
25.4
100
AcDbHatch
 10
0.0
 20
0.0
 30
0.0
210
0.0
220
0.0
230
1.0
  2
SOLID
 70
     1
 71
     0
 91
        1
 92
        1
 93
        3
 72
     1
 10
302.2296860782125
 20
413.8914244221086
 11
304.5516711822481
 21
416.5744569846496
 72
     1
 10
304.5516711822481
 20
416.5744569846496
 11
301.4850260635525
 21
414.7895294592304
 72
     1
 10
301.4850260635525
 20
414.7895294592305
 11
302.2296860782125
 21
413.8914244221086
 97
        0
 75
     0
 76
     1
 98
        0
  0
LWPOLYLINE
  5
18A
330
184
100
AcDbEntity
  8
Default
  6
Continuous
 62
     7
 48
25.4
370
    20
100
AcDbPolyline
 90
        4
 70
     1
 43
0.0
 10
302.2296860782
 20
413.8914244221
 10
304.5516711822
 20
416.5744569846
 10
301.4850260636
 20
414.7895294592
 10
302.2296860782
 20
413.8914244221
  0
TEXT
  5
18B
330
184
100
AcDbEntity
  8
Default
  6
Continuous
 62
     7
 48
25.4
100
AcDbText
 10
290.5407876882
 20
406.094044389
 30
0.0
 40
3.5
  1
O
 50
39.6636821429
  7
SEACAD_semeca1_ttf
 11
288.3068077132
 21
408.7883594172
 31
0.0
100
AcDbText
 73
     3
  0
TEXT
  5
18C
330
184
100
AcDbEntity
  8
Default
  6
Continuous
 62
     7
 48
25.4
100
AcDbText
 10
295.229841211
 20
409.9819533982
 30
0.0
 40
3.5
  1
5,4
 50
39.6636821429
  7
SEACAD_arial_ttf
 11
292.9958612359
 21
412.6762684264
 31
0.0
100
AcDbText
 73
     3
  0
ENDBLK
  5
18E
330
184
100
AcDbEntity
  8
0
100
AcDbBlockEnd
  0
BLOCK
  5
199
330
190
100
AcDbEntity
  8
0
100
AcDbBlockBegin
  2
DMBLK5
 70
     0
 71
     0
 10
0.0
 20
0.0
 30
0.0
  3
DMBLK5
  1

  0
LINE
  5
191
330
190
100
AcDbEntity
  8
Default
  6
Continuous
 62
     7
 48
25.4
100
AcDbLine
 10
413.6037240716
 20
425.0401544057
 30
0.0
 11
404.6890427696
 21
416.4210786945
 31
0.0
  0
LINE
  5
192
330
190
100
AcDbEntity
  8
Default
  6
Continuous
 62
     7
 48
25.4
100
AcDbLine
 10
404.6890428703
 20
416.4210787918
 30
0.0
 11
389.3657139776
 21
401.6058624762
 31
0.0
  0
HATCH
  5
193
330
190
100
AcDbEntity
  8
Default
  6
Continuous
 62
     7
 48
25.4
100
AcDbHatch
 10
0.0
 20
0.0
 30
0.0
210
0.0
220
0.0
230
1.0
  2
SOLID
 70
     1
 71
     0
 91
        1
 92
        1
 93
        3
 72
     1
 10
411.4929506483116
 20
422.1879773230745
 11
410.6820161038475
 21
423.0267242215676
 72
     1
 10
410.6820161038475
 20
423.0267242215676
 11
408.5712426806003
 21
420.1745471389285
 72
     1
 10
408.5712426806003
 20
420.1745471389285
 11
411.4929506483116
 21
422.1879773230745
 97
        0
 75
     0
 76
     1
 98
        0
  0
LWPOLYLINE
  5
194
330
190
100
AcDbEntity
  8
Default
  6
Continuous
 62
     7
 48
25.4
370
    20
100
AcDbPolyline
 90
        4
 70
     1
 43
0.0
 10
411.4929506483
 20
422.1879773231
 10
408.5712426806
 20
420.1745471389
 10
410.6820161038
 20
423.0267242216
 10
411.4929506483
 20
422.1879773231
  0
HATCH
  5
195
330
190
100
AcDbEntity
  8
Default
  6
Continuous
 62
     7
 48
25.4
100
AcDbHatch
 10
0.0
 20
0.0
 30
0.0
210
0.0
220
0.0
230
1.0
  2
SOLID
 70
     1
 71
     0
 91
        1
 92
        1
 93
        3
 72
     1
 10
402.5782694470158
 20
413.5689017091981
 11
404.689042870263
 21
416.4210787918371
 72
     1
 10
404.689042870263
 20
416.4210787918371
 11
401.7673349025516
 21
414.4076486076912
 72
     1
 10
401.7673349025516
 20
414.4076486076912
 11
402.5782694470158
 21
413.5689017091981
 97
        0
 75
     0
 76
     1
 98
        0
  0
LWPOLYLINE
  5
196
330
190
100
AcDbEntity
  8
Default
  6
Continuous
 62
     7
 48
25.4
370
    20
100
AcDbPolyline
 90
        4
 70
     1
 43
0.0
 10
402.578269447
 20
413.5689017092
 10
404.6890428703
 20
416.4210787918
 10
401.7673349026
 20
414.4076486077
 10
402.578269447
 20
413.5689017092
  0
TEXT
  5
197
330
190
100
AcDbEntity
  8
Default
  6
Continuous
 62
     7
 48
25.4
100
AcDbText
 10
389.6381975323
 20
403.0864040965
 30
0.0
 40
3.5
  1
O
 50
44.0341289475
  7
SEACAD_semeca1_ttf
 11
387.205393974
 21
405.6026447143
 31
0.0
100
AcDbText
 73
     3
  0
TEXT
  5
198
330
190
100
AcDbEntity
  8
Default
  6
Continuous
 62
     7
 48
25.4
100
AcDbText
 10
394.0173390987
 20
407.3203359032
 30
0.0
 40
3.5
  1
5,4
 50
44.0341289475
  7
SEACAD_arial_ttf
 11
391.5845355404
 21
409.8365765211
 31
0.0
100
AcDbText
 73
     3
  0
ENDBLK
  5
19A
330
190
100
AcDbEntity
  8
0
100
AcDbBlockEnd
  0
BLOCK
  5
1A5
330
19C
100
AcDbEntity
  8
0
100
AcDbBlockBegin
  2
DMBLK6
 70
     0
 71
     0
 10
0.0
 20
0.0
 30
0.0
  3
DMBLK6
  1

  0
LINE
  5
19D
330
19C
100
AcDbEntity
  8
Default
  6
Continuous
 62
     7
 48
25.4
100
AcDbLine
 10
480.2501656453
 20
402.7599282597
 30
0.0
 11
469.4823428777
 21
411.7072186287
 31
0.0
  0
LINE
  5
19E
330
19C
100
AcDbEntity
  8
Default
  6
Continuous
 62
     7
 48
25.4
100
AcDbLine
 10
469.4823430439
 20
411.7072184906
 30
0.0
 11
455.2186191943
 21
423.5593525552
 31
0.0
  0
HATCH
  5
19F
330
19C
100
AcDbEntity
  8
Default
  6
Continuous
 62
     7
 48
25.4
100
AcDbHatch
 10
0.0
 20
0.0
 30
0.0
210
0.0
220
0.0
230
1.0
  2
SOLID
 70
     1
 71
     0
 91
        1
 92
        1
 93
        3
 72
     1
 10
477.1854061880323
 20
404.5480915700005
 11
477.9310137187784
 21
405.445410133963
 72
     1
 10
477.9310137187784
 20
405.445410133963
 11
474.8662542615177
 21
407.2335734442201
 72
     1
 10
474.8662542615177
 20
407.23357344422
 11
477.1854061880323
 21
404.5480915700004
 97
        0
 75
     0
 76
     1
 98
        0
  0
LWPOLYLINE
  5
1A0
330
19C
100
AcDbEntity
  8
Default
  6
Continuous
 62
     7
 48
25.4
370
    20
100
AcDbPolyline
 90
        4
 70
     1
 43
0.0
 10
477.185406188
 20
404.54809157
 10
474.8662542615
 20
407.2335734442
 10
477.9310137188
 20
405.445410134
 10
477.185406188
 20
404.54809157
  0
HATCH
  5
1A1
330
19C
100
AcDbEntity
  8
Default
  6
Continuous
 62
     7
 48
25.4
100
AcDbHatch
 10
0.0
 20
0.0
 30
0.0
210
0.0
220
0.0
230
1.0
  2
SOLID
 70
     1
 71
     0
 91
        1
 92
        1
 93
        3
 72
     1
 10
466.4175835866653
 20
413.4953818008672
 11
469.482343043926
 21
411.7072184906101
 72
     1
 10
469.482343043926
 20
411.7072184906101
 11
467.1631911174114
 21
414.3927003648298
 72
     1
 10
467.1631911174114
 20
414.3927003648298
 11
466.4175835866653
 21
413.4953818008672
 97
        0
 75
     0
 76
     1
 98
        0
  0
LWPOLYLINE
  5
1A2
330
19C
100
AcDbEntity
  8
Default
  6
Continuous
 62
     7
 48
25.4
370
    20
100
AcDbPolyline
 90
        4
 70
     1
 43
0.0
 10
466.4175835867
 20
413.4953818009
 10
469.4823430439
 20
411.7072184906
 10
467.1631911174
 20
414.3927003648
 10
466.4175835867
 20
413.4953818009
  0
TEXT
  5
1A3
330
19C
100
AcDbEntity
  8
Default
  6
Continuous
 62
     7
 48
25.4
100
AcDbText
 10
456.7200093455
 20
423.4494535267
 30
0.0
 40
3.5
  1
O
 50
320.2758433622
  7
SEACAD_semeca1_ttf
 11
458.9568318687
 21
426.1414091355
 31
0.0
100
AcDbText
 73
     3
  0
TEXT
  5
1A4
330
19C
100
AcDbEntity
  8
Default
  6
Continuous
 62
     7
 48
25.4
100
AcDbText
 10
461.4049566506
 20
419.5565974863
 30
0.0
 40
3.5
  1
7
 50
320.2758433622
  7
SEACAD_arial_ttf
 11
463.6417791738
 21
422.2485530951
 31
0.0
100
AcDbText
 73
     3
  0
ENDBLK
  5
1A6
330
19C
100
AcDbEntity
  8
0
100
AcDbBlockEnd
  0
BLOCK
  5
1B1
330
1A8
100
AcDbEntity
  8
0
100
AcDbBlockBegin
  2
DMBLK7
 70
     0
 71
     0
 10
0.0
 20
0.0
 30
0.0
  3
DMBLK7
  1

  0
LINE
  5
1A9
330
1A8
100
AcDbEntity
  8
Default
  6
Continuous
 62
     7
 48
25.4
100
AcDbLine
 10
487.0740222354
 20
351.490438457
 30
0.0
 11
479.3114859327
 21
341.8207415133
 31
0.0
  0
LINE
  5
1AA
330
1A8
100
AcDbEntity
  8
Default
  6
Continuous
 62
     7
 48
25.4
100
AcDbLine
 10
479.3114860204
 20
341.8207416226
 30
0.0
 11
467.4937430564
 21
327.0995231232
 31
0.0
  0
HATCH
  5
1AB
330
1A8
100
AcDbEntity
  8
Default
  6
Continuous
 62
     7
 48
25.4
100
AcDbHatch
 10
0.0
 20
0.0
 30
0.0
210
0.0
220
0.0
230
1.0
  2
SOLID
 70
     1
 71
     0
 91
        1
 92
        1
 93
        3
 72
     1
 10
485.3378754164508
 20
348.3959154278022
 11
484.4280920999081
 21
349.1262615868786
 72
     1
 10
484.4280920999081
 20
349.1262615868786
 11
482.6919452809501
 21
346.0317385577124
 72
     1
 10
482.6919452809501
 20
346.0317385577124
 11
485.3378754164508
 21
348.3959154278022
 97
        0
 75
     0
 76
     1
 98
        0
  0
LWPOLYLINE
  5
1AC
330
1A8
100
AcDbEntity
  8
Default
  6
Continuous
 62
     7
 48
25.4
370
    20
100
AcDbPolyline
 90
        4
 70
     1
 43
0.0
 10
485.3378754165
 20
348.3959154278
 10
482.691945281
 20
346.0317385577
 10
484.4280920999
 20
349.1262615869
 10
485.3378754165
 20
348.3959154278
  0
HATCH
  5
1AD
330
1A8
100
AcDbEntity
  8
Default
  6
Continuous
 62
     7
 48
25.4
100
AcDbHatch
 10
0.0
 20
0.0
 30
0.0
210
0.0
220
0.0
230
1.0
  2
SOLID
 70
     1
 71
     0
 91
        1
 92
        1
 93
        3
 72
     1
 10
477.5753392014674
 20
338.7262185933854
 11
479.3114860204255
 21
341.8207416225516
 72
     1
 10
479.3114860204255
 20
341.8207416225516
 11
476.6655558849247
 21
339.4565647524619
 72
     1
 10
476.6655558849247
 20
339.4565647524618
 11
477.5753392014674
 21
338.7262185933854
 97
        0
 75
     0
 76
     1
 98
        0
  0
LWPOLYLINE
  5
1AE
330
1A8
100
AcDbEntity
  8
Default
  6
Continuous
 62
     7
 48
25.4
370
    20
100
AcDbPolyline
 90
        4
 70
     1
 43
0.0
 10
477.5753392015
 20
338.7262185934
 10
479.3114860204
 20
341.8207416226
 10
476.6655558849
 20
339.4565647525
 10
477.5753392015
 20
338.7262185934
  0
TEXT
  5
1AF
330
1A8
100
AcDbEntity
  8
Default
  6
Continuous
 62
     7
 48
25.4
100
AcDbText
 10
467.5782698149
 20
328.6025561521
 30
0.0
 40
3.5
  1
O
 50
51.2435712013
  7
SEACAD_semeca1_ttf
 11
464.8489199495
 21
330.7935945617
 31
0.0
100
AcDbText
 73
     3
  0
TEXT
  5
1B0
330
1A8
100
AcDbEntity
  8
Default
  6
Continuous
 62
     7
 48
25.4
100
AcDbText
 10
471.391445433
 20
333.3525825845
 30
0.0
 40
3.5
  1
5,4
 50
51.2435712013
  7
SEACAD_arial_ttf
 11
468.6620955677
 21
335.5436209941
 31
0.0
100
AcDbText
 73
     3
  0
ENDBLK
  5
1B2
330
1A8
100
AcDbEntity
  8
0
100
AcDbBlockEnd
  0
BLOCK
  5
1BD
330
1B4
100
AcDbEntity
  8
0
100
AcDbBlockBegin
  2
DMBLK8
 70
     0
 71
     0
 10
0.0
 20
0.0
 30
0.0
  3
DMBLK8
  1

  0
LINE
  5
1B5
330
1B4
100
AcDbEntity
  8
Default
  6
Continuous
 62
     7
 48
25.4
100
AcDbLine
 10
486.9703966653
 20
251.5724712622
 30
0.0
 11
479.3403301644
 21
241.797907639
 31
0.0
  0
LINE
  5
1B6
330
1B4
100
AcDbEntity
  8
Default
  6
Continuous
 62
     7
 48
25.4
100
AcDbLine
 10
479.3403302506
 20
241.7979077494
 30
0.0
 11
464.1278272881
 21
222.3097973826
 31
0.0
  0
HATCH
  5
1B7
330
1B4
100
AcDbEntity
  8
Default
  6
Continuous
 62
     7
 48
25.4
100
AcDbHatch
 10
0.0
 20
0.0
 30
0.0
210
0.0
220
0.0
230
1.0
  2
SOLID
 70
     1
 71
     0
 91
        1
 92
        1
 93
        3
 72
     1
 10
485.2765737606493
 20
248.4545805453203
 11
484.3569239554159
 21
249.1724631477499
 72
     1
 10
484.3569239554159
 20
249.1724631477499
 11
482.6631010507436
 21
246.0545724308348
 72
     1
 10
482.6631010507436
 20
246.0545724308348
 11
485.2765737606493
 21
248.4545805453202
 97
        0
 75
     0
 76
     1
 98
        0
  0
LWPOLYLINE
  5
1B8
330
1B4
100
AcDbEntity
  8
Default
  6
Continuous
 62
     7
 48
25.4
370
    20
100
AcDbPolyline
 90
        4
 70
     1
 43
0.0
 10
485.2765737606
 20
248.4545805453
 10
482.6631010507
 20
246.0545724308
 10
484.3569239554
 20
249.1724631477
 10
485.2765737606
 20
248.4545805453
  0
HATCH
  5
1B9
330
1B4
100
AcDbEntity
  8
Default
  6
Continuous
 62
     7
 48
25.4
100
AcDbHatch
 10
0.0
 20
0.0
 30
0.0
210
0.0
220
0.0
230
1.0
  2
SOLID
 70
     1
 71
     0
 91
        1
 92
        1
 93
        3
 72
     1
 10
477.6465073459597
 20
238.6800170325141
 11
479.3403302506321
 21
241.7979077494292
 72
     1
 10
479.3403302506321
 20
241.7979077494292
 11
476.7268575407263
 21
239.3978996349438
 72
     1
 10
476.7268575407263
 20
239.3978996349438
 11
477.6465073459597
 21
238.6800170325141
 97
        0
 75
     0
 76
     1
 98
        0
  0
LWPOLYLINE
  5
1BA
330
1B4
100
AcDbEntity
  8
Default
  6
Continuous
 62
     7
 48
25.4
370
    20
100
AcDbPolyline
 90
        4
 70
     1
 43
0.0
 10
477.646507346
 20
238.6800170325
 10
479.3403302506
 20
241.7979077494
 10
476.7268575407
 20
239.3978996349
 10
477.646507346
 20
238.6800170325
  0
TEXT
  5
1BB
330
1B4
100
AcDbEntity
  8
Default
  6
Continuous
 62
     7
 48
25.4
100
AcDbText
 10
464.1918680061
 20
223.8138433018
 30
0.0
 40
3.5
  1
O
 50
52.0242481631
  7
SEACAD_semeca1_ttf
 11
461.4329186755
 21
225.9674910426
 31
0.0
100
AcDbText
 73
     3
  0
TEXT
  5
1BC
330
1B4
100
AcDbEntity
  8
Default
  6
Continuous
 62
     7
 48
25.4
100
AcDbText
 10
467.939970741
 20
228.6153831893
 30
0.0
 40
3.5
  1
5,4
 50
52.0242481631
  7
SEACAD_arial_ttf
 11
465.1810214104
 21
230.7690309301
 31
0.0
100
AcDbText
 73
     3
  0
ENDBLK
  5
1BE
330
1B4
100
AcDbEntity
  8
0
100
AcDbBlockEnd
  0
BLOCK
  5
1C9
330
1C0
100
AcDbEntity
  8
0
100
AcDbBlockBegin
  2
DMBLK9
 70
     0
 71
     0
 10
0.0
 20
0.0
 30
0.0
  3
DMBLK9
  1

  0
LINE
  5
1C1
330
1C0
100
AcDbEntity
  8
Default
  6
Continuous
 62
     7
 48
25.4
100
AcDbLine
 10
487.8655900768
 20
150.7802339663
 30
0.0
 11
479.0911526095
 21
142.0184273052
 31
0.0
  0
LINE
  5
1C2
330
1C0
100
AcDbEntity
  8
Default
  6
Continuous
 62
     7
 48
25.4
100
AcDbLine
 10
479.0911527087
 20
142.0184274042
 30
0.0
 11
464.358060238
 21
127.3065432261
 31
0.0
  0
HATCH
  5
1C3
330
1C0
100
AcDbEntity
  8
Default
  6
Continuous
 62
     7
 48
25.4
100
AcDbHatch
 10
0.0
 20
0.0
 30
0.0
210
0.0
220
0.0
230
1.0
  2
SOLID
 70
     1
 71
     0
 91
        1
 92
        1
 93
        3
 72
     1
 10
485.8011161006204
 20
147.8943674141459
 11
484.976752568917
 21
148.7199193281614
 72
     1
 10
484.976752568917
 20
148.7199193281614
 11
482.9122785927223
 21
145.8340527760434
 72
     1
 10
482.9122785927223
 20
145.8340527760435
 11
485.8011161006204
 21
147.8943674141459
 97
        0
 75
     0
 76
     1
 98
        0
  0
LWPOLYLINE
  5
1C4
330
1C0
100
AcDbEntity
  8
Default
  6
Continuous
 62
     7
 48
25.4
370
    20
100
AcDbPolyline
 90
        4
 70
     1
 43
0.0
 10
485.8011161006
 20
147.8943674141
 10
482.9122785927
 20
145.834052776
 10
484.9767525689
 20
148.7199193282
 10
485.8011161006
 20
147.8943674141
  0
HATCH
  5
1C5
330
1C0
100
AcDbEntity
  8
Default
  6
Continuous
 62
     7
 48
25.4
100
AcDbHatch
 10
0.0
 20
0.0
 30
0.0
210
0.0
220
0.0
230
1.0
  2
SOLID
 70
     1
 71
     0
 91
        1
 92
        1
 93
        3
 72
     1
 10
477.0266787324587
 20
139.1325608521026
 11
479.0911527086533
 21
142.0184274042206
 72
     1
 10
479.0911527086534
 20
142.0184274042206
 11
476.2023152007553
 21
139.9581127661181
 72
     1
 10
476.2023152007552
 20
139.9581127661181
 11
477.0266787324587
 21
139.1325608521027
 97
        0
 75
     0
 76
     1
 98
        0
  0
LWPOLYLINE
  5
1C6
330
1C0
100
AcDbEntity
  8
Default
  6
Continuous
 62
     7
 48
25.4
370
    20
100
AcDbPolyline
 90
        4
 70
     1
 43
0.0
 10
477.0266787325
 20
139.1325608521
 10
479.0911527087
 20
142.0184274042
 10
476.2023152008
 20
139.9581127661
 10
477.0266787325
 20
139.1325608521
  0
TEXT
  5
1C7
330
1C0
100
AcDbEntity
  8
Default
  6
Continuous
 62
     7
 48
25.4
100
AcDbText
 10
464.6066173157
 20
128.7912890482
 30
0.0
 40
3.5
  1
O
 50
44.9587316554
  7
SEACAD_semeca1_ttf
 11
462.1335267969
 21
131.2679447138
 31
0.0
100
AcDbText
 73
     3
  0
TEXT
  5
1C8
330
1C0
100
AcDbEntity
  8
Default
  6
Continuous
 62
     7
 48
25.4
100
AcDbText
 10
468.9168671758
 20
133.0953343019
 30
0.0
 40
3.5
  1
5,4
 50
44.9587316554
  7
SEACAD_arial_ttf
 11
466.4437766571
 21
135.5719899675
 31
0.0
100
AcDbText
 73
     3
  0
ENDBLK
  5
1CA
330
1C0
100
AcDbEntity
  8
0
100
AcDbBlockEnd
  0
BLOCK
  5
1D5
330
1CC
100
AcDbEntity
  8
0
100
AcDbBlockBegin
  2
DMBLK10
 70
     0
 71
     0
 10
0.0
 20
0.0
 30
0.0
  3
DMBLK10
  1

  0
LINE
  5
1CD
330
1CC
100
AcDbEntity
  8
Default
  6
Continuous
 62
     7
 48
25.4
100
AcDbLine
 10
480.7589582053
 20
72.3361248264
 30
0.0
 11
469.3127453507
 21
80.3974040913
 31
0.0
  0
LINE
  5
1CE
330
1CC
100
AcDbEntity
  8
Default
  6
Continuous
 62
     7
 48
25.4
100
AcDbLine
 10
469.3127455274
 20
80.3974039669
 30
0.0
 11
454.8113967002
 21
90.6103385068
 31
0.0
  0
HATCH
  5
1CF
330
1CC
100
AcDbEntity
  8
Default
  6
Continuous
 62
     7
 48
25.4
100
AcDbHatch
 10
0.0
 20
0.0
 30
0.0
210
0.0
220
0.0
230
1.0
  2
SOLID
 70
     1
 71
     0
 91
        1
 92
        1
 93
        3
 72
     1
 10
477.5615183556528
 20
73.87451910698354
 11
478.2332916277291
 21
74.8283701782001
 72
     1
 10
478.2332916277291
 20
74.82837017820012
 11
475.0358517780413
 21
76.36676445882082
 72
     1
 10
475.0358517780413
 20
76.36676445882082
 11
477.5615183556528
 21
73.87451910698356
 97
        0
 75
     0
 76
     1
 98
        0
  0
LWPOLYLINE
  5
1D0
330
1CC
100
AcDbEntity
  8
Default
  6
Continuous
 62
     7
 48
25.4
370
    20
100
AcDbPolyline
 90
        4
 70
     1
 43
0.0
 10
477.5615183557
 20
73.874519107
 10
475.035851778
 20
76.3667644588
 10
478.2332916277
 20
74.8283701782
 10
477.5615183557
 20
73.874519107
  0
HATCH
  5
1D1
330
1CC
100
AcDbEntity
  8
Default
  6
Continuous
 62
     7
 48
25.4
100
AcDbHatch
 10
0.0
 20
0.0
 30
0.0
210
0.0
220
0.0
230
1.0
  2
SOLID
 70
     1
 71
     0
 91
        1
 92
        1
 93
        3
 72
     1
 10
466.1153056777074
 20
81.93579824748701
 11
469.3127455273952
 21
80.3974039668663
 72
     1
 10
469.3127455273953
 20
80.39740396686632
 11
466.7870789497838
 21
82.88964931870359
 72
     1
 10
466.7870789497838
 20
82.88964931870359
 11
466.1153056777075
 21
81.93579824748703
 97
        0
 75
     0
 76
     1
 98
        0
  0
LWPOLYLINE
  5
1D2
330
1CC
100
AcDbEntity
  8
Default
  6
Continuous
 62
     7
 48
25.4
370
    20
100
AcDbPolyline
 90
        4
 70
     1
 43
0.0
 10
466.1153056777
 20
81.9357982475
 10
469.3127455274
 20
80.3974039669
 10
466.7870789498
 20
82.8896493187
 10
466.1153056777
 20
81.9357982475
  0
TEXT
  5
1D3
330
1CC
100
AcDbEntity
  8
Default
  6
Continuous
 62
     7
 48
25.4
100
AcDbText
 10
456.316769532
 20
90.6203653676
 30
0.0
 40
3.5
  1
O
 50
324.8439285206
  7
SEACAD_semeca1_ttf
 11
458.332089286
 21
93.4819184929
 31
0.0
100
AcDbText
 73
     3
  0
TEXT
  5
1D4
330
1CC
100
AcDbEntity
  8
Default
  6
Continuous
 62
     7
 48
25.4
100
AcDbText
 10
461.2968760238
 20
87.1130018658
 30
0.0
 40
3.5
  1
7
 50
324.8439285206
  7
SEACAD_arial_ttf
 11
463.3121957778
 21
89.9745549912
 31
0.0
100
AcDbText
 73
     3
  0
ENDBLK
  5
1D6
330
1CC
100
AcDbEntity
  8
0
100
AcDbBlockEnd
  0
BLOCK
  5
1E1
330
1D8
100
AcDbEntity
  8
0
100
AcDbBlockBegin
  2
DMBLK11
 70
     0
 71
     0
 10
0.0
 20
0.0
 30
0.0
  3
DMBLK11
  1

  0
LINE
  5
1D9
330
1D8
100
AcDbEntity
  8
Default
  6
Continuous
 62
     7
 48
25.4
100
AcDbLine
 10
399.6290214095
 20
62.8409272875
 30
0.0
 11
408.5789085741
 21
71.4234402397
 31
0.0
  0
LINE
  5
1DA
330
1D8
100
AcDbEntity
  8
Default
  6
Continuous
 62
     7
 48
25.4
100
AcDbLine
 10
408.578908473
 20
71.4234401427
 30
0.0
 11
425.9129907915
 21
88.045994514
 31
0.0
  0
HATCH
  5
1DB
330
1D8
100
AcDbEntity
  8
Default
  6
Continuous
 62
     7
 48
25.4
100
AcDbHatch
 10
0.0
 20
0.0
 30
0.0
210
0.0
220
0.0
230
1.0
  2
SOLID
 70
     1
 71
     0
 91
        1
 92
        1
 93
        3
 72
     1
 10
401.7514519937287
 20
65.68444042631782
 11
402.5589464936439
 21
64.84238114827161
 72
     1
 10
402.5589464936439
 20
64.84238114827163
 11
404.6813770778249
 21
67.68589428704053
 72
     1
 10
404.6813770778249
 20
67.68589428704053
 11
401.7514519937287
 21
65.68444042631782
 97
        0
 75
     0
 76
     1
 98
        0
  0
LWPOLYLINE
  5
1DC
330
1D8
100
AcDbEntity
  8
Default
  6
Continuous
 62
     7
 48
25.4
370
    20
100
AcDbPolyline
 90
        4
 70
     1
 43
0.0
 10
401.7514519937
 20
65.6844404263
 10
404.6813770778
 20
67.685894287
 10
402.5589464936
 20
64.8423811483
 10
401.7514519937
 20
65.6844404263
  0
HATCH
  5
1DD
330
1D8
100
AcDbEntity
  8
Default
  6
Continuous
 62
     7
 48
25.4
100
AcDbHatch
 10
0.0
 20
0.0
 30
0.0
210
0.0
220
0.0
230
1.0
  2
SOLID
 70
     1
 71
     0
 91
        1
 92
        1
 93
        3
 72
     1
 10
410.7013390572301
 20
74.26695328148014
 11
408.5789084730491
 21
71.42344014271124
 72
     1
 10
408.5789084730492
 20
71.42344014271124
 11
411.5088335571454
 21
73.42489400343395
 72
     1
 10
411.5088335571454
 20
73.42489400343393
 11
410.7013390572301
 21
74.26695328148014
 97
        0
 75
     0
 76
     1
 98
        0
  0
LWPOLYLINE
  5
1DE
330
1D8
100
AcDbEntity
  8
Default
  6
Continuous
 62
     7
 48
25.4
370
    20
100
AcDbPolyline
 90
        4
 70
     1
 43
0.0
 10
410.7013390572
 20
74.2669532815
 10
408.578908473
 20
71.4234401427
 10
411.5088335571
 20
73.4248940034
 10
410.7013390572
 20
74.2669532815
  0
TEXT
  5
1DF
330
1D8
100
AcDbEntity
  8
Default
  6
Continuous
 62
     7
 48
25.4
100
AcDbText
 10
416.0078519881
 20
79.7597468333
 30
0.0
 40
3.5
  1
O
 50
43.7995989207
  7
SEACAD_semeca1_ttf
 11
413.5853685631
 21
82.2859245894
 31
0.0
100
AcDbText
 73
     3
  0
TEXT
  5
1E0
330
1D8
100
AcDbEntity
  8
Default
  6
Continuous
 62
     7
 48
25.4
100
AcDbText
 10
420.404287662
 20
83.9757179869
 30
0.0
 40
3.5
  1
5,4
 50
43.7995989207
  7
SEACAD_arial_ttf
 11
417.981804237
 21
86.5018957431
 31
0.0
100
AcDbText
 73
     3
  0
ENDBLK
  5
1E2
330
1D8
100
AcDbEntity
  8
0
100
AcDbBlockEnd
  0
BLOCK
  5
1ED
330
1E4
100
AcDbEntity
  8
0
100
AcDbBlockBegin
  2
DMBLK12
 70
     0
 71
     0
 10
0.0
 20
0.0
 30
0.0
  3
DMBLK12
  1

  0
LINE
  5
1E5
330
1E4
100
AcDbEntity
  8
Default
  6
Continuous
 62
     7
 48
25.4
100
AcDbLine
 10
299.2775605262
 20
63.2277771052
 30
0.0
 11
308.6767378951
 21
71.3157603903
 31
0.0
  0
LINE
  5
1E6
330
1E4
100
AcDbEntity
  8
Default
  6
Continuous
 62
     7
 48
25.4
100
AcDbLine
 10
308.6767377889
 20
71.3157602989
 30
0.0
 11
329.1312931584
 21
88.9168859548
 31
0.0
  0
HATCH
  5
1E7
330
1E4
100
AcDbEntity
  8
Default
  6
Continuous
 62
     7
 48
25.4
100
AcDbHatch
 10
0.0
 20
0.0
 30
0.0
210
0.0
220
0.0
230
1.0
  2
SOLID
 70
     1
 71
     0
 91
        1
 92
        1
 93
        3
 72
     1
 10
301.5500710585953
 20
65.95284122100216
 11
302.3110372295228
 21
65.06851001503854
 72
     1
 10
302.3110372295228
 20
65.06851001503854
 11
304.5835477619499
 21
67.79357413080278
 72
     1
 10
304.5835477619499
 20
67.79357413080278
 11
301.5500710585953
 21
65.95284122100216
 97
        0
 75
     0
 76
     1
 98
        0
  0
LWPOLYLINE
  5
1E8
330
1E4
100
AcDbEntity
  8
Default
  6
Continuous
 62
     7
 48
25.4
370
    20
100
AcDbPolyline
 90
        4
 70
     1
 43
0.0
 10
301.5500710586
 20
65.952841221
 10
304.5835477619
 20
67.7935741308
 10
302.3110372295
 20
65.068510015
 10
301.5500710586
 20
65.952841221
  0
HATCH
  5
1E9
330
1E4
100
AcDbEntity
  8
Default
  6
Continuous
 62
     7
 48
25.4
100
AcDbHatch
 10
0.0
 20
0.0
 30
0.0
210
0.0
220
0.0
230
1.0
  2
SOLID
 70
     1
 71
     0
 91
        1
 92
        1
 93
        3
 72
     1
 10
310.9492483213513
 20
74.04082441471311
 11
308.6767377889241
 21
71.31576029894887
 72
     1
 10
308.6767377889241
 20
71.31576029894887
 11
311.7102144922787
 21
73.1564932087495
 72
     1
 10
311.7102144922787
 20
73.1564932087495
 11
310.9492483213512
 21
74.04082441471311
 97
        0
 75
     0
 76
     1
 98
        0
  0
LWPOLYLINE
  5
1EA
330
1E4
100
AcDbEntity
  8
Default
  6
Continuous
 62
     7
 48
25.4
370
    20
100
AcDbPolyline
 90
        4
 70
     1
 43
0.0
 10
310.9492483214
 20
74.0408244147
 10
308.6767377889
 20
71.3157602989
 10
311.7102144923
 20
73.1564932087
 10
310.9492483214
 20
74.0408244147
  0
TEXT
  5
1EB
330
1E4
100
AcDbEntity
  8
Default
  6
Continuous
 62
     7
 48
25.4
100
AcDbText
 10
318.7942079958
 20
81.1761902701
 30
0.0
 40
3.5
  1
O
 50
40.7119640951
  7
SEACAD_semeca1_ttf
 11
316.5113095535
 21
83.8291838061
 31
0.0
100
AcDbText
 73
     3
  0
TEXT
  5
1EC
330
1E4
100
AcDbEntity
  8
Default
  6
Continuous
 62
     7
 48
25.4
100
AcDbText
 10
323.4113476234
 20
85.1492345767
 30
0.0
 40
3.5
  1
5,4
 50
40.7119640951
  7
SEACAD_arial_ttf
 11
321.1284491811
 21
87.8022281127
 31
0.0
100
AcDbText
 73
     3
  0
ENDBLK
  5
1EE
330
1E4
100
AcDbEntity
  8
0
100
AcDbBlockEnd
  0
BLOCK
  5
1F9
330
1F0
100
AcDbEntity
  8
0
100
AcDbBlockBegin
  2
DMBLK13
 70
     0
 71
     0
 10
0.0
 20
0.0
 30
0.0
  3
DMBLK13
  1

  0
LINE
  5
1F1
330
1F0
100
AcDbEntity
  8
Default
  6
Continuous
 62
     7
 48
25.4
100
AcDbLine
 10
148.934959393
 20
71.4075852837
 30
0.0
 11
138.4696626255
 21
80.7069172849
 31
0.0
  0
LINE
  5
1F2
330
1F0
100
AcDbEntity
  8
Default
  6
Continuous
 62
     7
 48
25.4
100
AcDbLine
 10
138.469662787
 20
80.7069171414
 30
0.0
 11
120.5418054845
 21
96.6373872306
 31
0.0
  0
HATCH
  5
1F3
330
1F0
100
AcDbEntity
  8
Default
  6
Continuous
 62
     7
 48
25.4
100
AcDbHatch
 10
0.0
 20
0.0
 30
0.0
210
0.0
220
0.0
230
1.0
  2
SOLID
 70
     1
 71
     0
 91
        1
 92
        1
 93
        3
 72
     1
 10
145.9311630343799
 20
73.29636425199949
 11
146.706107367818
 21
74.16847231595106
 72
     1
 10
146.706107367818
 20
74.16847231595106
 11
143.7023110092442
 21
76.05725128428939
 72
     1
 10
143.7023110092442
 20
76.0572512842894
 11
145.9311630343799
 21
73.29636425199949
 97
        0
 75
     0
 76
     1
 98
        0
  0
LWPOLYLINE
  5
1F4
330
1F0
100
AcDbEntity
  8
Default
  6
Continuous
 62
     7
 48
25.4
370
    20
100
AcDbPolyline
 90
        4
 70
     1
 43
0.0
 10
145.9311630344
 20
73.296364252
 10
143.7023110092
 20
76.0572512843
 10
146.7061073678
 20
74.168472316
 10
145.9311630344
 20
73.296364252
  0
HATCH
  5
1F5
330
1F0
100
AcDbEntity
  8
Default
  6
Continuous
 62
     7
 48
25.4
100
AcDbHatch
 10
0.0
 20
0.0
 30
0.0
210
0.0
220
0.0
230
1.0
  2
SOLID
 70
     1
 71
     0
 91
        1
 92
        1
 93
        3
 72
     1
 10
135.4658664284755
 20
82.59569610973618
 11
138.4696627870493
 21
80.70691714139785
 72
     1
 10
138.4696627870493
 20
80.70691714139784
 11
136.2408107619136
 21
83.46780417368775
 72
     1
 10
136.2408107619135
 20
83.46780417368775
 11
135.4658664284755
 21
82.59569610973618
 97
        0
 75
     0
 76
     1
 98
        0
  0
LWPOLYLINE
  5
1F6
330
1F0
100
AcDbEntity
  8
Default
  6
Continuous
 62
     7
 48
25.4
370
    20
100
AcDbPolyline
 90
        4
 70
     1
 43
0.0
 10
135.4658664285
 20
82.5956961097
 10
138.469662787
 20
80.7069171414
 10
136.2408107619
 20
83.4678041737
 10
135.4658664285
 20
82.5956961097
  0
TEXT
  5
1F7
330
1F0
100
AcDbEntity
  8
Default
  6
Continuous
 62
     7
 48
25.4
100
AcDbText
 10
122.0387279074
 20
96.4777760653
 30
0.0
 40
3.5
  1
O
 50
318.3761082068
  7
SEACAD_semeca1_ttf
 11
124.3635608359
 21
99.0941001764
 31
0.0
100
AcDbText
 73
     3
  0
TEXT
  5
1F8
330
1F0
100
AcDbEntity
  8
Default
  6
Continuous
 62
     7
 48
25.4
100
AcDbText
 10
126.5920498691
 20
92.4317510387
 30
0.0
 40
3.5
  1
7
 50
318.3761082068
  7
SEACAD_arial_ttf
 11
128.9168827977
 21
95.0480751498
 31
0.0
100
AcDbText
 73
     3
  0
ENDBLK
  5
1FA
330
1F0
100
AcDbEntity
  8
0
100
AcDbBlockEnd
  0
BLOCK
  5
205
330
1FC
100
AcDbEntity
  8
0
100
AcDbBlockBegin
  2
DMBLK14
 70
     0
 71
     0
 10
0.0
 20
0.0
 30
0.0
  3
DMBLK14
  1

  0
LINE
  5
1FD
330
1FC
100
AcDbEntity
  8
Default
  6
Continuous
 62
     7
 48
25.4
100
AcDbLine
 10
125.7425018192
 20
136.7407783126
 30
0.0
 11
134.072320863
 21
145.9263171389
 31
0.0
  0
LINE
  5
1FE
330
1FC
100
AcDbEntity
  8
Default
  6
Continuous
 62
     7
 48
25.4
100
AcDbLine
 10
134.0723207689
 20
145.9263170352
 30
0.0
 11
152.7315847958
 21
166.502441593
 31
0.0
  0
HATCH
  5
1FF
330
1FC
100
AcDbEntity
  8
Default
  6
Continuous
 62
     7
 48
25.4
100
AcDbHatch
 10
0.0
 20
0.0
 30
0.0
210
0.0
220
0.0
230
1.0
  2
SOLID
 70
     1
 71
     0
 91
        1
 92
        1
 93
        3
 72
     1
 10
127.6615450226208
 20
139.7253304965394
 11
128.5257758280259
 21
138.941610961166
 72
     1
 10
128.5257758280259
 20
138.9416109611659
 11
130.4448190314438
 21
141.9261631450678
 72
     1
 10
130.4448190314438
 20
141.9261631450678
 11
127.6615450226208
 21
139.7253304965394
 97
        0
 75
     0
 76
     1
 98
        0
  0
LWPOLYLINE
  5
200
330
1FC
100
AcDbEntity
  8
Default
  6
Continuous
 62
     7
 48
25.4
370
    20
100
AcDbPolyline
 90
        4
 70
     1
 43
0.0
 10
127.6615450226
 20
139.7253304965
 10
130.4448190314
 20
141.9261631451
 10
128.525775828
 20
138.9416109612
 10
127.6615450226
 20
139.7253304965
  0
HATCH
  5
201
330
1FC
100
AcDbEntity
  8
Default
  6
Continuous
 62
     7
 48
25.4
100
AcDbHatch
 10
0.0
 20
0.0
 30
0.0
210
0.0
220
0.0
230
1.0
  2
SOLID
 70
     1
 71
     0
 91
        1
 92
        1
 93
        3
 72
     1
 10
135.9913639723358
 20
148.9108692190873
 11
134.0723207689179
 21
145.9263170351855
 72
     1
 10
134.0723207689179
 20
145.9263170351854
 11
136.8555947777409
 21
148.1271496837138
 72
     1
 10
136.8555947777409
 20
148.1271496837138
 11
135.9913639723358
 21
148.9108692190873
 97
        0
 75
     0
 76
     1
 98
        0
  0
LWPOLYLINE
  5
202
330
1FC
100
AcDbEntity
  8
Default
  6
Continuous
 62
     7
 48
25.4
370
    20
100
AcDbPolyline
 90
        4
 70
     1
 43
0.0
 10
135.9913639723
 20
148.9108692191
 10
134.0723207689
 20
145.9263170352
 10
136.8555947777
 20
148.1271496837
 10
135.9913639723
 20
148.9108692191
  0
TEXT
  5
203
330
1FC
100
AcDbEntity
  8
Default
  6
Continuous
 62
     7
 48
25.4
100
AcDbText
 10
143.4281857106
 20
157.5458564847
 30
0.0
 40
3.5
  1
O
 50
47.7969842079
  7
SEACAD_semeca1_ttf
 11
140.8354933744
 21
159.8970150182
 31
0.0
100
AcDbText
 73
     3
  0
TEXT
  5
204
330
1FC
100
AcDbEntity
  8
Default
  6
Continuous
 62
     7
 48
25.4
100
AcDbText
 10
147.5200265268
 20
162.0580508663
 30
0.0
 40
3.5
  1
5,4
 50
47.7969842079
  7
SEACAD_arial_ttf
 11
144.9273341906
 21
164.4092093998
 31
0.0
100
AcDbText
 73
     3
  0
ENDBLK
  5
206
330
1FC
100
AcDbEntity
  8
0
100
AcDbBlockEnd
  0
BLOCK
  5
211
330
208
100
AcDbEntity
  8
0
100
AcDbBlockBegin
  2
DMBLK15
 70
     0
 71
     0
 10
0.0
 20
0.0
 30
0.0
  3
DMBLK15
  1

  0
LINE
  5
209
330
208
100
AcDbEntity
  8
Default
  6
Continuous
 62
     7
 48
25.4
100
AcDbLine
 10
126.1689875215
 20
236.3759427023
 30
0.0
 11
133.9536083444
 21
246.0278693222
 31
0.0
  0
LINE
  5
20A
330
208
100
AcDbEntity
  8
Default
  6
Continuous
 62
     7
 48
25.4
100
AcDbLine
 10
133.9536082565
 20
246.0278692131
 30
0.0
 11
149.1752022187
 21
264.9006841263
 31
0.0
  0
HATCH
  5
20B
330
208
100
AcDbEntity
  8
Default
  6
Continuous
 62
     7
 48
25.4
100
AcDbHatch
 10
0.0
 20
0.0
 30
0.0
210
0.0
220
0.0
230
1.0
  2
SOLID
 70
     1
 71
     0
 91
        1
 92
        1
 93
        3
 72
     1
 10
127.9122038439424
 20
239.4664888365726
 11
128.8203152214163
 21
238.7340648328427
 72
     1
 10
128.8203152214163
 20
238.7340648328427
 11
130.563531543869
 21
241.824610967129
 72
     1
 10
130.563531543869
 20
241.824610967129
 11
127.9122038439424
 21
239.4664888365726
 97
        0
 75
     0
 76
     1
 98
        0
  0
LWPOLYLINE
  5
20C
330
208
100
AcDbEntity
  8
Default
  6
Continuous
 62
     7
 48
25.4
370
    20
100
AcDbPolyline
 90
        4
 70
     1
 43
0.0
 10
127.9122038439
 20
239.4664888366
 10
130.5635315439
 20
241.8246109671
 10
128.8203152214
 20
238.7340648328
 10
127.9122038439
 20
239.4664888366
  0
HATCH
  5
20D
330
208
100
AcDbEntity
  8
Default
  6
Continuous
 62
     7
 48
25.4
100
AcDbHatch
 10
0.0
 20
0.0
 30
0.0
210
0.0
220
0.0
230
1.0
  2
SOLID
 70
     1
 71
     0
 91
        1
 92
        1
 93
        3
 72
     1
 10
135.6968245789454
 20
249.1184153474106
 11
133.9536082564927
 21
246.0278692131242
 72
     1
 10
133.9536082564927
 20
246.0278692131243
 11
136.6049359564193
 21
248.3859913436807
 72
     1
 10
136.6049359564193
 20
248.3859913436807
 11
135.6968245789454
 21
249.1184153474106
 97
        0
 75
     0
 76
     1
 98
        0
  0
LWPOLYLINE
  5
20E
330
208
100
AcDbEntity
  8
Default
  6
Continuous
 62
     7
 48
25.4
370
    20
100
AcDbPolyline
 90
        4
 70
     1
 43
0.0
 10
135.6968245789
 20
249.1184153474
 10
133.9536082565
 20
246.0278692131
 10
136.6049359564
 20
248.3859913437
 10
135.6968245789
 20
249.1184153474
  0
TEXT
  5
20F
330
208
100
AcDbEntity
  8
Default
  6
Continuous
 62
     7
 48
25.4
100
AcDbText
 10
140.4053886787
 20
255.4210192685
 30
0.0
 40
3.5
  1
O
 50
51.1125936726
  7
SEACAD_semeca1_ttf
 11
137.6810546303
 21
257.6182912119
 31
0.0
100
AcDbText
 73
     3
  0
TEXT
  5
210
330
208
100
AcDbEntity
  8
Default
  6
Continuous
 62
     7
 48
25.4
100
AcDbText
 10
144.2294128327
 20
260.1623164193
 30
0.0
 40
3.5
  1
5,4
 50
51.1125936726
  7
SEACAD_arial_ttf
 11
141.5050787844
 21
262.3595883626
 31
0.0
100
AcDbText
 73
     3
  0
ENDBLK
  5
212
330
208
100
AcDbEntity
  8
0
100
AcDbBlockEnd
  0
BLOCK
  5
21D
330
214
100
AcDbEntity
  8
0
100
AcDbBlockBegin
  2
DMBLK16
 70
     0
 71
     0
 10
0.0
 20
0.0
 30
0.0
  3
DMBLK16
  1

  0
HATCH
  5
215
330
214
100
AcDbEntity
  8
Default
  6
Continuous
 62
     7
 48
25.4
100
AcDbHatch
 10
0.0
 20
0.0
 30
0.0
210
0.0
220
0.0
230
1.0
  2
SOLID
 70
     1
 71
     0
 91
        1
 92
        1
 93
        3
 72
     1
 10
71.88523513841764
 20
428.5978128573512
 11
73.05190184109546
 21
428.5978128573512
 72
     1
 10
73.05190184109546
 20
428.5978128573512
 11
72.46856848975655
 21
432.0978129653846
 72
     1
 10
72.46856848975655
 20
432.0978129653846
 11
71.88523513841764
 21
428.5978128573512
 97
        0
 75
     0
 76
     1
 98
        0
  0
LWPOLYLINE
  5
216
330
214
100
AcDbEntity
  8
Default
  6
Continuous
 62
     7
 48
25.4
370
    20
100
AcDbPolyline
 90
        4
 70
     1
 43
0.0
 10
71.8852351384
 20
428.5978128574
 10
72.4685684898
 20
432.0978129654
 10
73.0519018411
 20
428.5978128574
 10
71.8852351384
 20
428.5978128574
  0
HATCH
  5
217
330
214
100
AcDbEntity
  8
Default
  6
Continuous
 62
     7
 48
25.4
100
AcDbHatch
 10
0.0
 20
0.0
 30
0.0
210
0.0
220
0.0
230
1.0
  2
SOLID
 70
     1
 71
     0
 91
        1
 92
        1
 93
        3
 72
     1
 10
71.88523513841764
 20
59.2546820080494
 11
72.46856848975655
 21
55.75468190001598
 72
     1
 10
72.46856848975655
 20
55.75468190001598
 11
73.05190184109546
 21
59.2546820080494
 72
     1
 10
73.05190184109546
 20
59.2546820080494
 11
71.88523513841764
 21
59.2546820080494
 97
        0
 75
     0
 76
     1
 98
        0
  0
LWPOLYLINE
  5
218
330
214
100
AcDbEntity
  8
Default
  6
Continuous
 62
     7
 48
25.4
370
    20
100
AcDbPolyline
 90
        4
 70
     1
 43
0.0
 10
71.8852351384
 20
59.254682008
 10
72.4685684898
 20
55.7546819
 10
73.0519018411
 20
59.254682008
 10
71.8852351384
 20
59.254682008
  0
LINE
  5
219
330
214
100
AcDbEntity
  8
Default
  6
Continuous
 62
     7
 48
25.4
100
AcDbLine
 10
138.285986998
 20
432.0978129654
 30
0.0
 11
70.7185684357
 21
432.0978129654
 31
0.0
  0
LINE
  5
21A
330
214
100
AcDbEntity
  8
Default
  6
Continuous
 62
     7
 48
25.4
100
AcDbLine
 10
138.285986998
 20
55.7546672149
 30
0.0
 11
70.7185684357
 21
55.7546672149
 31
0.0
  0
LINE
  5
21B
330
214
100
AcDbEntity
  8
Default
  6
Continuous
 62
     7
 48
25.4
100
AcDbLine
 10
72.4685684898
 20
432.0978129654
 30
0.0
 11
72.4685684898
 21
55.7546819
 31
0.0
  0
TEXT
  5
21C
330
214
100
AcDbEntity
  8
Default
  6
Continuous
 62
     7
 48
25.4
100
AcDbText
 10
71.5935684898
 20
240.5853383418
 30
0.0
 40
3.5
  1
376
 50
90.0
  7
SEACAD_arial_ttf
 11
68.0935684898
 21
240.5853383418
 31
0.0
100
AcDbText
 73
     3
  0
ENDBLK
  5
21E
330
214
100
AcDbEntity
  8
0
100
AcDbBlockEnd
  0
BLOCK
  5
229
330
220
100
AcDbEntity
  8
0
100
AcDbBlockBegin
  2
DMBLK17
 70
     0
 71
     0
 10
0.0
 20
0.0
 30
0.0
  3
DMBLK17
  1

  0
HATCH
  5
221
330
220
100
AcDbEntity
  8
Default
  6
Continuous
 62
     7
 48
25.4
100
AcDbHatch
 10
0.0
 20
0.0
 30
0.0
210
0.0
220
0.0
230
1.0
  2
SOLID
 70
     1
 71
     0
 91
        1
 92
        1
 93
        3
 72
     1
 10
92.75766534692139
 20
340.4262399820932
 11
93.9243320495992
 21
340.4262399820932
 72
     1
 10
93.9243320495992
 20
340.4262399820932
 11
93.3409986982603
 21
343.9262400901266
 72
     1
 10
93.3409986982603
 20
343.9262400901266
 11
92.75766534692139
 21
340.4262399820932
 97
        0
 75
     0
 76
     1
 98
        0
  0
LWPOLYLINE
  5
222
330
220
100
AcDbEntity
  8
Default
  6
Continuous
 62
     7
 48
25.4
370
    20
100
AcDbPolyline
 90
        4
 70
     1
 43
0.0
 10
92.7576653469
 20
340.4262399821
 10
93.3409986983
 20
343.9262400901
 10
93.9243320496
 20
340.4262399821
 10
92.7576653469
 20
340.4262399821
  0
HATCH
  5
223
330
220
100
AcDbEntity
  8
Default
  6
Continuous
 62
     7
 48
25.4
100
AcDbHatch
 10
0.0
 20
0.0
 30
0.0
210
0.0
220
0.0
230
1.0
  2
SOLID
 70
     1
 71
     0
 91
        1
 92
        1
 93
        3
 72
     1
 10
92.75766534692139
 20
147.4262372179278
 11
93.3409986982603
 21
143.9262371098944
 72
     1
 10
93.3409986982603
 20
143.9262371098944
 11
93.9243320495992
 21
147.4262372179278
 72
     1
 10
93.9243320495992
 20
147.4262372179278
 11
92.75766534692139
 21
147.4262372179278
 97
        0
 75
     0
 76
     1
 98
        0
  0
LWPOLYLINE
  5
224
330
220
100
AcDbEntity
  8
Default
  6
Continuous
 62
     7
 48
25.4
370
    20
100
AcDbPolyline
 90
        4
 70
     1
 43
0.0
 10
92.7576653469
 20
147.4262372179
 10
93.3409986983
 20
143.9262371099
 10
93.9243320496
 20
147.4262372179
 10
92.7576653469
 20
147.4262372179
  0
LINE
  5
225
330
220
100
AcDbEntity
  8
Default
  6
Continuous
 62
     7
 48
25.4
100
AcDbLine
 10
117.45857
 20
343.9262400901
 30
0.0
 11
91.5909986442
 21
343.9262400901
 31
0.0
  0
LINE
  5
226
330
220
100
AcDbEntity
  8
Default
  6
Continuous
 62
     7
 48
25.4
100
AcDbLine
 10
117.45857
 20
143.9262400901
 30
0.0
 11
91.5909986442
 21
143.9262400901
 31
0.0
  0
LINE
  5
227
330
220
100
AcDbEntity
  8
Default
  6
Continuous
 62
     7
 48
25.4
100
AcDbLine
 10
93.3409986983
 20
343.9262400901
 30
0.0
 11
93.3409986983
 21
143.9262371099
 31
0.0
  0
TEXT
  5
228
330
220
100
AcDbEntity
  8
Default
  6
Continuous
 62
     7
 48
25.4
100
AcDbText
 10
92.4659986983
 20
240.5853295091
 30
0.0
 40
3.5
  1
200
 50
90.0
  7
SEACAD_arial_ttf
 11
88.9659986983
 21
240.5853295091
 31
0.0
100
AcDbText
 73
     3
  0
ENDBLK
  5
22A
330
220
100
AcDbEntity
  8
0
100
AcDbBlockEnd
  0
BLOCK
  5
235
330
22C
100
AcDbEntity
  8
0
100
AcDbBlockBegin
  2
DMBLK18
 70
     0
 71
     0
 10
0.0
 20
0.0
 30
0.0
  3
DMBLK18
  1

  0
HATCH
  5
22D
330
22C
100
AcDbEntity
  8
Default
  6
Continuous
 62
     7
 48
25.4
100
AcDbHatch
 10
0.0
 20
0.0
 30
0.0
210
0.0
220
0.0
230
1.0
  2
SOLID
 70
     1
 71
     0
 91
        1
 92
        1
 93
        3
 72
     1
 10
518.66954082117
 20
340.4262399820986
 11
518.0862074698312
 21
343.926240090132
 72
     1
 10
518.0862074698312
 20
343.926240090132
 11
517.5028741184923
 21
340.4262399820986
 72
     1
 10
517.5028741184923
 20
340.4262399820986
 11
518.66954082117
 21
340.4262399820986
 97
        0
 75
     0
 76
     1
 98
        0
  0
LWPOLYLINE
  5
22E
330
22C
100
AcDbEntity
  8
Default
  6
Continuous
 62
     7
 48
25.4
370
    20
100
AcDbPolyline
 90
        4
 70
     1
 43
0.0
 10
518.6695408212
 20
340.4262399821
 10
518.0862074698
 20
343.9262400901
 10
517.5028741185
 20
340.4262399821
 10
518.6695408212
 20
340.4262399821
  0
HATCH
  5
22F
330
22C
100
AcDbEntity
  8
Default
  6
Continuous
 62
     7
 48
25.4
100
AcDbHatch
 10
0.0
 20
0.0
 30
0.0
210
0.0
220
0.0
230
1.0
  2
SOLID
 70
     1
 71
     0
 91
        1
 92
        1
 93
        3
 72
     1
 10
518.66954082117
 20
147.4262372179332
 11
517.5028741184923
 21
147.4262372179332
 72
     1
 10
517.5028741184923
 20
147.4262372179332
 11
518.0862074698312
 21
143.9262371098998
 72
     1
 10
518.0862074698312
 20
143.9262371098998
 11
518.66954082117
 21
147.4262372179332
 97
        0
 75
     0
 76
     1
 98
        0
  0
LWPOLYLINE
  5
230
330
22C
100
AcDbEntity
  8
Default
  6
Continuous
 62
     7
 48
25.4
370
    20
100
AcDbPolyline
 90
        4
 70
     1
 43
0.0
 10
518.6695408212
 20
147.4262372179
 10
518.0862074698
 20
143.9262371099
 10
517.5028741185
 20
147.4262372179
 10
518.6695408212
 20
147.4262372179
  0
LINE
  5
231
330
22C
100
AcDbEntity
  8
Default
  6
Continuous
 62
     7
 48
25.4
100
AcDbLine
 10
495.8017155509
 20
343.9262400901
 30
0.0
 11
519.8362075238
 21
343.9262400901
 31
0.0
  0
LINE
  5
232
330
22C
100
AcDbEntity
  8
Default
  6
Continuous
 62
     7
 48
25.4
100
AcDbLine
 10
495.8017155509
 20
143.9262400901
 30
0.0
 11
519.8362075238
 21
143.9262400901
 31
0.0
  0
LINE
  5
233
330
22C
100
AcDbEntity
  8
Default
  6
Continuous
 62
     7
 48
25.4
100
AcDbLine
 10
518.0862074698
 20
343.9262400901
 30
0.0
 11
518.0862074698
 21
143.9262371099
 31
0.0
  0
TEXT
  5
234
330
22C
100
AcDbEntity
  8
Default
  6
Continuous
 62
     7
 48
25.4
100
AcDbText
 10
517.2112074698
 20
240.5853295091
 30
0.0
 40
3.5
  1
200
 50
90.0
  7
SEACAD_arial_ttf
 11
513.7112074698
 21
240.5853295091
 31
0.0
100
AcDbText
 73
     3
  0
ENDBLK
  5
236
330
22C
100
AcDbEntity
  8
0
100
AcDbBlockEnd
  0
BLOCK
  5
241
330
238
100
AcDbEntity
  8
0
100
AcDbBlockBegin
  2
DMBLK19
 70
     0
 71
     0
 10
0.0
 20
0.0
 30
0.0
  3
DMBLK19
  1

  0
HATCH
  5
239
330
238
100
AcDbEntity
  8
Default
  6
Continuous
 62
     7
 48
25.4
100
AcDbHatch
 10
0.0
 20
0.0
 30
0.0
210
0.0
220
0.0
230
1.0
  2
SOLID
 70
     1
 71
     0
 91
        1
 92
        1
 93
        3
 72
     1
 10
403.1301426673982
 20
446.3219353680757
 11
403.1301426673982
 21
445.1552686653978
 72
     1
 10
403.1301426673982
 20
445.1552686653978
 11
406.6301427754316
 21
445.7386020167368
 72
     1
 10
406.6301427754316
 20
445.7386020167368
 11
403.1301426673982
 21
446.3219353680757
 97
        0
 75
     0
 76
     1
 98
        0
  0
LWPOLYLINE
  5
23A
330
238
100
AcDbEntity
  8
Default
  6
Continuous
 62
     7
 48
25.4
370
    20
100
AcDbPolyline
 90
        4
 70
     1
 43
0.0
 10
403.1301426674
 20
446.3219353681
 10
406.6301427754
 20
445.7386020167
 10
403.1301426674
 20
445.1552686654
 10
403.1301426674
 20
446.3219353681
  0
HATCH
  5
23B
330
238
100
AcDbEntity
  8
Default
  6
Continuous
 62
     7
 48
25.4
100
AcDbHatch
 10
0.0
 20
0.0
 30
0.0
210
0.0
220
0.0
230
1.0
  2
SOLID
 70
     1
 71
     0
 91
        1
 92
        1
 93
        3
 72
     1
 10
210.1301399032328
 20
446.3219353680757
 11
206.6301397951994
 21
445.7386020167368
 72
     1
 10
206.6301397951994
 20
445.7386020167368
 11
210.1301399032328
 21
445.1552686653978
 72
     1
 10
210.1301399032328
 20
445.1552686653978
 11
210.1301399032328
 21
446.3219353680757
 97
        0
 75
     0
 76
     1
 98
        0
  0
LWPOLYLINE
  5
23C
330
238
100
AcDbEntity
  8
Default
  6
Continuous
 62
     7
 48
25.4
370
    20
100
AcDbPolyline
 90
        4
 70
     1
 43
0.0
 10
210.1301399032
 20
446.3219353681
 10
206.6301397952
 20
445.7386020167
 10
210.1301399032
 20
445.1552686654
 10
210.1301399032
 20
446.3219353681
  0
LINE
  5
23D
330
238
100
AcDbEntity
  8
Default
  6
Continuous
 62
     7
 48
25.4
100
AcDbLine
 10
406.6301427754
 20
433.0978128655
 30
0.0
 11
406.6301427754
 21
447.4886020708
 31
0.0
  0
LINE
  5
23E
330
238
100
AcDbEntity
  8
Default
  6
Continuous
 62
     7
 48
25.4
100
AcDbLine
 10
206.6301427754
 20
433.0978128655
 30
0.0
 11
206.6301427754
 21
447.4886020708
 31
0.0
  0
LINE
  5
23F
330
238
100
AcDbEntity
  8
Default
  6
Continuous
 62
     7
 48
25.4
100
AcDbLine
 10
406.6301427754
 20
445.7386020167
 30
0.0
 11
206.6301397952
 21
445.7386020167
 31
0.0
  0
TEXT
  5
240
330
238
100
AcDbEntity
  8
Default
  6
Continuous
 62
     7
 48
25.4
100
AcDbText
 10
303.2892321944
 20
446.6136020167
 30
0.0
 40
3.5
  1
200
  7
SEACAD_arial_ttf
 11
303.2892321944
 21
450.1136020167
 31
0.0
100
AcDbText
 73
     3
  0
ENDBLK
  5
242
330
238
100
AcDbEntity
  8
0
100
AcDbBlockEnd
  0
BLOCK
  5
24D
330
244
100
AcDbEntity
  8
0
100
AcDbBlockBegin
  2
DMBLK20
 70
     0
 71
     0
 10
0.0
 20
0.0
 30
0.0
  3
DMBLK20
  1

  0
HATCH
  5
245
330
244
100
AcDbEntity
  8
Default
  6
Continuous
 62
     7
 48
25.4
100
AcDbHatch
 10
0.0
 20
0.0
 30
0.0
210
0.0
220
0.0
230
1.0
  2
SOLID
 70
     1
 71
     0
 91
        1
 92
        1
 93
        3
 72
     1
 10
121.9585700082143
 20
457.0873670808237
 11
118.4585699001809
 21
456.5040337294848
 72
     1
 10
118.4585699001809
 20
456.5040337294848
 11
121.9585700082143
 21
455.9207003781459
 72
     1
 10
121.9585700082143
 20
455.9207003781459
 11
121.9585700082143
 21
457.0873670808237
 97
        0
 75
     0
 76
     1
 98
        0
  0
LWPOLYLINE
  5
246
330
244
100
AcDbEntity
  8
Default
  6
Continuous
 62
     7
 48
25.4
370
    20
100
AcDbPolyline
 90
        4
 70
     1
 43
0.0
 10
121.9585700082
 20
457.0873670808
 10
118.4585699002
 20
456.5040337295
 10
121.9585700082
 20
455.9207003781
 10
121.9585700082
 20
457.0873670808
  0
HATCH
  5
247
330
244
100
AcDbEntity
  8
Default
  6
Continuous
 62
     7
 48
25.4
100
AcDbHatch
 10
0.0
 20
0.0
 30
0.0
210
0.0
220
0.0
230
1.0
  2
SOLID
 70
     1
 71
     0
 91
        1
 92
        1
 93
        3
 72
     1
 10
491.3017008575161
 20
457.0873670808237
 11
491.3017008575161
 21
455.9207003781459
 72
     1
 10
491.3017008575161
 20
455.9207003781459
 11
494.8017009655495
 21
456.5040337294848
 72
     1
 10
494.8017009655495
 20
456.5040337294848
 11
491.3017008575161
 21
457.0873670808237
 97
        0
 75
     0
 76
     1
 98
        0
  0
LWPOLYLINE
  5
248
330
244
100
AcDbEntity
  8
Default
  6
Continuous
 62
     7
 48
25.4
370
    20
100
AcDbPolyline
 90
        4
 70
     1
 43
0.0
 10
491.3017008575
 20
457.0873670808
 10
494.8017009655
 20
456.5040337295
 10
491.3017008575
 20
455.9207003781
 10
491.3017008575
 20
457.0873670808
  0
LINE
  5
249
330
244
100
AcDbEntity
  8
Default
  6
Continuous
 62
     7
 48
25.4
100
AcDbLine
 10
118.4585699002
 20
412.2703958676
 30
0.0
 11
118.4585699002
 21
458.2540337835
 31
0.0
  0
LINE
  5
24A
330
244
100
AcDbEntity
  8
Default
  6
Continuous
 62
     7
 48
25.4
100
AcDbLine
 10
494.8017156507
 20
412.2703958676
 30
0.0
 11
494.8017156507
 21
458.2540337835
 31
0.0
  0
LINE
  5
24B
330
244
100
AcDbEntity
  8
Default
  6
Continuous
 62
     7
 48
25.4
100
AcDbLine
 10
118.4585699002
 20
456.5040337295
 30
0.0
 11
494.8017009655
 21
456.5040337295
 31
0.0
  0
TEXT
  5
24C
330
244
100
AcDbEntity
  8
Default
  6
Continuous
 62
     7
 48
25.4
100
AcDbText
 10
303.289226342
 20
457.3790337295
 30
0.0
 40
3.5
  1
376
  7
SEACAD_arial_ttf
 11
303.289226342
 21
460.8790337295
 31
0.0
100
AcDbText
 73
     3
  0
ENDBLK
  5
24E
330
244
100
AcDbEntity
  8
0
100
AcDbBlockEnd
  0
BLOCK
  5
259
330
250
100
AcDbEntity
  8
0
100
AcDbBlockBegin
  2
DMBLK21
 70
     0
 71
     0
 10
0.0
 20
0.0
 30
0.0
  3
DMBLK21
  1

  0
HATCH
  5
251
330
250
100
AcDbEntity
  8
Default
  6
Continuous
 62
     7
 48
25.4
100
AcDbHatch
 10
0.0
 20
0.0
 30
0.0
210
0.0
220
0.0
230
1.0
  2
SOLID
 70
     1
 71
     0
 91
        1
 92
        1
 93
        3
 72
     1
 10
123.7585700082142
 20
379.0550322947103
 11
120.2585699001808
 21
378.4716989433714
 72
     1
 10
120.2585699001808
 20
378.4716989433714
 11
123.7585700082142
 21
377.8883655920325
 72
     1
 10
123.7585700082142
 20
377.8883655920325
 11
123.7585700082142
 21
379.0550322947103
 97
        0
 75
     0
 76
     1
 98
        0
  0
LWPOLYLINE
  5
252
330
250
100
AcDbEntity
  8
Default
  6
Continuous
 62
     7
 48
25.4
370
    20
100
AcDbPolyline
 90
        4
 70
     1
 43
0.0
 10
123.7585700082
 20
379.0550322947
 10
120.2585699002
 20
378.4716989434
 10
123.7585700082
 20
377.888365592
 10
123.7585700082
 20
379.0550322947
  0
HATCH
  5
253
330
250
100
AcDbEntity
  8
Default
  6
Continuous
 62
     7
 48
25.4
100
AcDbHatch
 10
0.0
 20
0.0
 30
0.0
210
0.0
220
0.0
230
1.0
  2
SOLID
 70
     1
 71
     0
 91
        1
 92
        1
 93
        3
 72
     1
 10
303.1301495584209
 20
379.0550322947103
 11
303.1301495584209
 21
377.8883655920325
 72
     1
 10
303.1301495584209
 20
377.8883655920325
 11
306.6301496664543
 21
378.4716989433714
 72
     1
 10
306.6301496664543
 20
378.4716989433714
 11
303.1301495584209
 21
379.0550322947103
 97
        0
 75
     0
 76
     1
 98
        0
  0
LWPOLYLINE
  5
254
330
250
100
AcDbEntity
  8
Default
  6
Continuous
 62
     7
 48
25.4
370
    20
100
AcDbPolyline
 90
        4
 70
     1
 43
0.0
 10
303.1301495584
 20
379.0550322947
 10
306.6301496665
 20
378.4716989434
 10
303.1301495584
 20
377.888365592
 10
303.1301495584
 20
379.0550322947
  0
LINE
  5
255
330
250
100
AcDbEntity
  8
Default
  6
Continuous
 62
     7
 48
25.4
100
AcDbLine
 10
120.2585699002
 20
346.7262399903
 30
0.0
 11
120.2585699002
 21
380.2216989974
 31
0.0
  0
LINE
  5
256
330
250
100
AcDbEntity
  8
Default
  6
Continuous
 62
     7
 48
25.4
100
AcDbLine
 10
306.6301427754
 20
413.7478127784
 30
0.0
 11
306.6301427754
 21
376.7216988894
 31
0.0
  0
LINE
  5
257
330
250
100
AcDbEntity
  8
Default
  6
Continuous
 62
     7
 48
25.4
100
AcDbLine
 10
120.2585699002
 20
378.4716989434
 30
0.0
 11
306.6301496665
 21
378.4716989434
 31
0.0
  0
TEXT
  5
258
330
250
100
AcDbEntity
  8
Default
  6
Continuous
 62
     7
 48
25.4
100
AcDbText
 10
207.3193597833
 20
379.3466989434
 30
0.0
 40
3.5
  1
186,37
  7
SEACAD_arial_ttf
 11
207.3193597833
 21
382.8466989434
 31
0.0
100
AcDbText
 73
     3
  0
ENDBLK
  5
25A
330
250
100
AcDbEntity
  8
0
100
AcDbBlockEnd
  0
BLOCK
  5
265
330
25C
100
AcDbEntity
  8
0
100
AcDbBlockBegin
  2
DMBLK22
 70
     0
 71
     0
 10
0.0
 20
0.0
 30
0.0
  3
DMBLK22
  1

  0
HATCH
  5
25D
330
25C
100
AcDbEntity
  8
Default
  6
Continuous
 62
     7
 48
25.4
100
AcDbHatch
 10
0.0
 20
0.0
 30
0.0
210
0.0
220
0.0
230
1.0
  2
SOLID
 70
     1
 71
     0
 91
        1
 92
        1
 93
        3
 72
     1
 10
164.2585697921438
 20
31.17548728207613
 11
167.7585699001772
 21
31.75882063341503
 72
     1
 10
167.7585699001772
 20
31.75882063341503
 11
164.2585697921438
 21
32.34215398475393
 72
     1
 10
164.2585697921438
 20
32.34215398475393
 11
164.2585697921438
 21
31.17548728207613
 97
        0
 75
     0
 76
     1
 98
        0
  0
LWPOLYLINE
  5
25E
330
25C
100
AcDbEntity
  8
Default
  6
Continuous
 62
     7
 48
25.4
370
    20
100
AcDbPolyline
 90
        4
 70
     1
 43
0.0
 10
164.2585697921
 20
31.1754872821
 10
167.7585699002
 20
31.7588206334
 10
164.2585697921
 20
32.3421539848
 10
164.2585697921
 20
31.1754872821
  0
HATCH
  5
25F
330
25C
100
AcDbEntity
  8
Default
  6
Continuous
 62
     7
 48
25.4
100
AcDbHatch
 10
0.0
 20
0.0
 30
0.0
210
0.0
220
0.0
230
1.0
  2
SOLID
 70
     1
 71
     0
 91
        1
 92
        1
 93
        3
 72
     1
 10
111.2585713493151
 20
31.17548728207613
 11
111.2585713493151
 21
32.34215398475393
 72
     1
 10
111.2585713493151
 20
32.34215398475393
 11
107.7585712412817
 21
31.75882063341503
 72
     1
 10
107.7585712412817
 20
31.75882063341503
 11
111.2585713493151
 21
31.17548728207613
 97
        0
 75
     0
 76
     1
 98
        0
  0
LWPOLYLINE
  5
260
330
25C
100
AcDbEntity
  8
Default
  6
Continuous
 62
     7
 48
25.4
370
    20
100
AcDbPolyline
 90
        4
 70
     1
 43
0.0
 10
111.2585713493
 20
31.1754872821
 10
107.7585712413
 20
31.7588206334
 10
111.2585713493
 20
32.3421539848
 10
111.2585713493
 20
31.1754872821
  0
LINE
  5
261
330
25C
100
AcDbEntity
  8
Default
  6
Continuous
 62
     7
 48
25.4
100
AcDbLine
 10
167.7585699002
 20
47.2546685441
 30
0.0
 11
167.7585699002
 21
30.0088205794
 31
0.0
  0
LINE
  5
262
330
25C
100
AcDbEntity
  8
Default
  6
Continuous
 62
     7
 48
25.4
100
AcDbLine
 10
107.7585699002
 20
75.5820843127
 30
0.0
 11
107.7585699002
 21
30.0088205794
 31
0.0
  0
LINE
  5
263
330
25C
100
AcDbEntity
  8
Default
  6
Continuous
 62
     7
 48
25.4
100
AcDbLine
 10
167.7585699002
 20
31.7588206334
 30
0.0
 11
107.7585712413
 21
31.7588206334
 31
0.0
  0
TEXT
  5
264
330
25C
100
AcDbEntity
  8
Default
  6
Continuous
 62
     7
 48
25.4
100
AcDbText
 10
135.5312978435
 20
32.6338206334
 30
0.0
 40
3.5
  1
60
  7
SEACAD_arial_ttf
 11
135.5312978435
 21
36.1338206334
 31
0.0
100
AcDbText
 73
     3
  0
ENDBLK
  5
266
330
25C
100
AcDbEntity
  8
0
100
AcDbBlockEnd
  0
BLOCK
  5
270
330
268
100
AcDbEntity
  8
0
100
AcDbBlockBegin
  2
DMBLK23
 70
     0
 71
     0
 10
0.0
 20
0.0
 30
0.0
  3
DMBLK23
  1

  0
HATCH
  5
269
330
268
100
AcDbEntity
  8
Default
  6
Continuous
 62
     7
 48
25.4
100
AcDbHatch
 10
0.0
 20
0.0
 30
0.0
210
0.0
220
0.0
230
1.0
  2
SOLID
 70
     1
 71
     0
 91
        1
 92
        1
 93
        3
 72
     1
 10
197.6639446736447
 20
111.5546671068407
 11
197.0806113223059
 21
115.0546672148741
 72
     1
 10
197.0806113223059
 20
115.0546672148741
 11
196.497277970967
 21
111.5546671068407
 72
     1
 10
196.497277970967
 20
111.5546671068407
 11
197.6639446736447
 21
111.5546671068407
 97
        0
 75
     0
 76
     1
 98
        0
  0
LWPOLYLINE
  5
26A
330
268
100
AcDbEntity
  8
Default
  6
Continuous
 62
     7
 48
25.4
370
    20
100
AcDbPolyline
 90
        4
 70
     1
 43
0.0
 10
197.6639446736
 20
111.5546671068
 10
197.0806113223
 20
115.0546672149
 10
196.497277971
 20
111.5546671068
 10
197.6639446736
 20
111.5546671068
  0
HATCH
  5
26B
330
268
100
AcDbEntity
  8
Default
  6
Continuous
 62
     7
 48
25.4
100
AcDbHatch
 10
0.0
 20
0.0
 30
0.0
210
0.0
220
0.0
230
1.0
  2
SOLID
 70
     1
 71
     0
 91
        1
 92
        1
 93
        3
 72
     1
 10
197.6639446736447
 20
48.55466702488428
 11
196.497277970967
 21
48.55466702488428
 72
     1
 10
196.497277970967
 20
48.55466702488428
 11
197.0806113223059
 21
45.05466691685086
 72
     1
 10
197.0806113223059
 20
45.05466691685086
 11
197.6639446736447
 21
48.55466702488428
 97
        0
 75
     0
 76
     1
 98
        0
  0
LWPOLYLINE
  5
26C
330
268
100
AcDbEntity
  8
Default
  6
Continuous
 62
     7
 48
25.4
370
    20
100
AcDbPolyline
 90
        4
 70
     1
 43
0.0
 10
197.6639446736
 20
48.5546670249
 10
197.0806113223
 20
45.0546669169
 10
196.497277971
 20
48.5546670249
 10
197.6639446736
 20
48.5546670249
  0
LINE
  5
26D
330
268
100
AcDbEntity
  8
Default
  6
Continuous
 62
     7
 48
25.4
100
AcDbLine
 10
154.7222782993
 20
45.0546672149
 30
0.0
 11
198.8306113763
 21
45.0546672149
 31
0.0
  0
LINE
  5
26E
330
268
100
AcDbEntity
  8
Default
  6
Continuous
 62
     7
 48
25.4
100
AcDbLine
 10
197.0806113223
 20
115.0546672149
 30
0.0
 11
197.0806113223
 21
45.0546669169
 31
0.0
  0
TEXT
  5
26F
330
268
100
AcDbEntity
  8
Default
  6
Continuous
 62
     7
 48
25.4
100
AcDbText
 10
196.2056113223
 20
77.8273943386
 30
0.0
 40
3.5
  1
70
 50
90.0
  7
SEACAD_arial_ttf
 11
192.7056113223
 21
77.8273943386
 31
0.0
100
AcDbText
 73
     3
  0
ENDBLK
  5
271
330
268
100
AcDbEntity
  8
0
100
AcDbBlockEnd
  0
BLOCK
  5
27A
330
273
100
AcDbEntity
  8
0
100
AcDbBlockBegin
  2
DMBLK24
 70
     0
 71
     0
 10
0.0
 20
0.0
 30
0.0
  3
DMBLK24
  1

  0
HATCH
  5
274
330
273
100
AcDbEntity
  8
Default
  6
Continuous
 62
     7
 48
25.4
100
AcDbHatch
 10
0.0
 20
0.0
 30
0.0
210
0.0
220
0.0
230
1.0
  2
SOLID
 70
     1
 71
     0
 91
        1
 92
        1
 93
        3
 72
     1
 10
171.2585700082106
 20
95.76807970026995
 11
171.2585700082106
 21
96.93474640294777
 72
     1
 10
171.2585700082106
 20
96.93474640294777
 11
167.7585699001772
 21
96.35141305160886
 72
     1
 10
167.7585699001772
 20
96.35141305160886
 11
171.2585700082106
 21
95.76807970026995
 97
        0
 75
     0
 76
     1
 98
        0
  0
LWPOLYLINE
  5
275
330
273
100
AcDbEntity
  8
Default
  6
Continuous
 62
     7
 48
25.4
370
    20
100
AcDbPolyline
 90
        4
 70
     1
 43
0.0
 10
171.2585700082
 20
95.7680797003
 10
167.7585699002
 20
96.3514130516
 10
171.2585700082
 20
96.9347464029
 10
171.2585700082
 20
95.7680797003
  0
HATCH
  5
276
330
273
100
AcDbEntity
  8
Default
  6
Continuous
 62
     7
 48
25.4
100
AcDbHatch
 10
0.0
 20
0.0
 30
0.0
210
0.0
220
0.0
230
1.0
  2
SOLID
 70
     1
 71
     0
 91
        1
 92
        1
 93
        3
 72
     1
 10
284.2585671099347
 20
95.76807970026995
 11
287.7585672179682
 21
96.35141305160886
 72
     1
 10
287.7585672179682
 20
96.35141305160886
 11
284.2585671099347
 21
96.93474640294777
 72
     1
 10
284.2585671099347
 20
96.93474640294777
 11
284.2585671099347
 21
95.76807970026995
 97
        0
 75
     0
 76
     1
 98
        0
  0
LWPOLYLINE
  5
277
330
273
100
AcDbEntity
  8
Default
  6
Continuous
 62
     7
 48
25.4
370
    20
100
AcDbPolyline
 90
        4
 70
     1
 43
0.0
 10
284.2585671099
 20
95.7680797003
 10
287.758567218
 20
96.3514130516
 10
284.2585671099
 20
96.9347464029
 10
284.2585671099
 20
95.7680797003
  0
LINE
  5
278
330
273
100
AcDbEntity
  8
Default
  6
Continuous
 62
     7
 48
25.4
100
AcDbLine
 10
167.7585699002
 20
96.3514130516
 30
0.0
 11
287.758567218
 21
96.3514130516
 31
0.0
  0
TEXT
  5
279
330
273
100
AcDbEntity
  8
Default
  6
Continuous
 62
     7
 48
25.4
100
AcDbText
 10
224.4176594682
 20
97.2264130516
 30
0.0
 40
3.5
  1
120
  7
SEACAD_arial_ttf
 11
224.4176594682
 21
100.7264130516
 31
0.0
100
AcDbText
 73
     3
  0
ENDBLK
  5
27B
330
273
100
AcDbEntity
  8
0
100
AcDbBlockEnd
  0
BLOCK
  5
283
330
27D
100
AcDbEntity
  8
0
100
AcDbBlockBegin
  2
DMBLK25
 70
     0
 71
     0
 10
0.0
 20
0.0
 30
0.0
  3
DMBLK25
  1

  0
LINE
  5
27E
330
27D
100
AcDbEntity
  8
Default
  6
Continuous
 62
     7
 48
25.4
100
AcDbLine
 10
261.754993877
 20
99.8015315798
 30
0.0
 11
287.2597991678
 21
108.1734230461
 31
0.0
  0
HATCH
  5
27F
330
27D
100
AcDbEntity
  8
Default
  6
Continuous
 62
     7
 48
25.4
100
AcDbHatch
 10
0.0
 20
0.0
 30
0.0
210
0.0
220
0.0
230
1.0
  2
SOLID
 70
     1
 71
     0
 91
        1
 92
        1
 93
        3
 72
     1
 10
283.7524415263288
 20
107.6360969202048
 11
284.116296392665
 21
106.5276201133295
 72
     1
 10
284.116296392665
 20
106.5276201133295
 11
287.259799380123
 21
108.1734231157757
 72
     1
 10
287.259799380123
 20
108.1734231157757
 11
283.7524415263288
 21
107.6360969202048
 97
        0
 75
     0
 76
     1
 98
        0
  0
LWPOLYLINE
  5
280
330
27D
100
AcDbEntity
  8
Default
  6
Continuous
 62
     7
 48
25.4
370
    20
100
AcDbPolyline
 90
        4
 70
     1
 43
0.0
 10
283.7524415263
 20
107.6360969202
 10
287.2597993801
 20
108.1734231158
 10
284.1162963927
 20
106.5276201133
 10
283.7524415263
 20
107.6360969202
  0
TEXT
  5
281
330
27D
100
AcDbEntity
  8
Default
  6
Continuous
 62
     7
 48
25.4
100
AcDbText
 10
262.6460027337
 20
101.0149365559
 30
0.0
 40
3.5
  1
R
 50
18.1722986698
  7
SEACAD_arial_ttf
 11
261.5544381684
 21
104.3403668739
 31
0.0
100
AcDbText
 73
     3
  0
TEXT
  5
282
330
27D
100
AcDbEntity
  8
Default
  6
Continuous
 62
     7
 48
25.4
100
AcDbText
 10
267.3620675483
 20
102.5629735758
 30
0.0
 40
3.5
  1
10
 50
18.1722986698
  7
SEACAD_arial_ttf
 11
266.270502983
 21
105.8884038938
 31
0.0
100
AcDbText
 73
     3
  0
ENDBLK
  5
284
330
27D
100
AcDbEntity
  8
0
100
AcDbBlockEnd
  0
BLOCK
  5
28C
330
286
100
AcDbEntity
  8
0
100
AcDbBlockBegin
  2
DMBLK26
 70
     0
 71
     0
 10
0.0
 20
0.0
 30
0.0
  3
DMBLK26
  1

  0
LINE
  5
287
330
286
100
AcDbEntity
  8
Default
  6
Continuous
 62
     7
 48
25.4
100
AcDbLine
 10
292.7585699002
 20
50.0546672149
 30
0.0
 11
269.7037529778
 21
42.0310662197
 31
0.0
  0
HATCH
  5
288
330
286
100
AcDbEntity
  8
Default
  6
Continuous
 62
     7
 48
25.4
100
AcDbHatch
 10
0.0
 20
0.0
 30
0.0
210
0.0
220
0.0
230
1.0
  2
SOLID
 70
     1
 71
     0
 91
        1
 92
        1
 93
        3
 72
     1
 10
284.922570731421
 20
46.70991062244393
 11
288.0363741600698
 21
48.41123562453878
 72
     1
 10
288.0363741600698
 20
48.41123562453878
 11
284.5391033485064
 21
47.81175632914598
 72
     1
 10
284.5391033485064
 20
47.81175632914598
 11
284.922570731421
 21
46.70991062244393
 97
        0
 75
     0
 76
     1
 98
        0
  0
LWPOLYLINE
  5
289
330
286
100
AcDbEntity
  8
Default
  6
Continuous
 62
     7
 48
25.4
370
    20
100
AcDbPolyline
 90
        4
 70
     1
 43
0.0
 10
284.9225707314
 20
46.7099106224
 10
288.0363741601
 20
48.4112356245
 10
284.5391033485
 20
47.8117563291
 10
284.9225707314
 20
46.7099106224
  0
TEXT
  5
28A
330
286
100
AcDbEntity
  8
Default
  6
Continuous
 62
     7
 48
25.4
100
AcDbText
 10
270.573088372
 20
43.2600905061
 30
0.0
 40
3.5
  1
R
 50
19.1890597343
  7
SEACAD_arial_ttf
 11
269.4226862588
 21
46.5656275241
 31
0.0
100
AcDbText
 73
     3
  0
TEXT
  5
28B
330
286
100
AcDbEntity
  8
Default
  6
Continuous
 62
     7
 48
25.4
100
AcDbText
 10
275.2609408704
 20
44.8915698666
 30
0.0
 40
3.5
  1
5
 50
19.1890597343
  7
SEACAD_arial_ttf
 11
274.1105387571
 21
48.1971068847
 31
0.0
100
AcDbText
 73
     3
  0
ENDBLK
  5
28D
330
286
100
AcDbEntity
  8
0
100
AcDbBlockEnd
  0
BLOCK
  5
295
330
28F
100
AcDbEntity
  8
0
100
AcDbBlockBegin
  2
DMBLK27
 70
     0
 71
     0
 10
0.0
 20
0.0
 30
0.0
  3
DMBLK27
  1

  0
LINE
  5
290
330
28F
100
AcDbEntity
  8
Default
  6
Continuous
 62
     7
 48
25.4
100
AcDbLine
 10
118.4585699002
 20
409.4703959674
 30
0.0
 11
94.8041235019
 21
422.4069365906
 31
0.0
  0
HATCH
  5
291
330
28F
100
AcDbEntity
  8
Default
  6
Continuous
 62
     7
 48
25.4
100
AcDbHatch
 10
0.0
 20
0.0
 30
0.0
210
0.0
220
0.0
230
1.0
  2
SOLID
 70
     1
 71
     0
 91
        1
 92
        1
 93
        3
 72
     1
 10
105.7201147448245
 20
415.7721450200194
 11
109.0707847922777
 21
414.6045454362071
 72
     1
 10
109.0707847922777
 20
414.6045454362071
 11
106.2799129907881
 21
416.7957353281765
 72
     1
 10
106.2799129907881
 20
416.7957353281765
 11
105.7201147448245
 21
415.7721450200194
 97
        0
 75
     0
 76
     1
 98
        0
  0
LWPOLYLINE
  5
292
330
28F
100
AcDbEntity
  8
Default
  6
Continuous
 62
     7
 48
25.4
370
    20
100
AcDbPolyline
 90
        4
 70
     1
 43
0.0
 10
105.7201147448
 20
415.77214502
 10
109.0707847923
 20
414.6045454362
 10
106.2799129908
 20
416.7957353282
 10
105.7201147448
 20
415.77214502
  0
TEXT
  5
293
330
28F
100
AcDbEntity
  8
Default
  6
Continuous
 62
     7
 48
25.4
100
AcDbText
 10
96.2987418061
 20
422.5868412442
 30
0.0
 40
3.5
  1
R
 50
331.325892806
  7
SEACAD_arial_ttf
 11
97.9781364922
 21
425.6576120738
 31
0.0
100
AcDbText
 73
     3
  0
TEXT
  5
294
330
28F
100
AcDbEntity
  8
Default
  6
Continuous
 62
     7
 48
25.4
100
AcDbText
 10
100.6536531646
 20
420.2051542348
 30
0.0
 40
3.5
  1
11
 50
331.325892806
  7
SEACAD_arial_ttf
 11
102.3330478506
 21
423.2759250645
 31
0.0
100
AcDbText
 73
     3
  0
ENDBLK
  5
296
330
28F
100
AcDbEntity
  8
0
100
AcDbBlockEnd
  0
BLOCK
  5
2A1
330
298
100
AcDbEntity
  8
0
100
AcDbBlockBegin
  2
DMBLK28
 70
     0
 71
     0
 10
0.0
 20
0.0
 30
0.0
  3
DMBLK28
  1

  0
HATCH
  5
299
330
298
100
AcDbEntity
  8
Default
  6
Continuous
 62
     7
 48
25.4
100
AcDbHatch
 10
0.0
 20
0.0
 30
0.0
210
0.0
220
0.0
230
1.0
  2
SOLID
 70
     1
 71
     0
 91
        1
 92
        1
 93
        3
 72
     1
 10
403.1301426674036
 20
34.11151649276461
 11
406.630142775437
 21
34.69484984410351
 72
     1
 10
406.630142775437
 20
34.69484984410351
 11
403.1301426674036
 21
35.27818319544241
 72
     1
 10
403.1301426674036
 20
35.27818319544241
 11
403.1301426674036
 21
34.11151649276461
 97
        0
 75
     0
 76
     1
 98
        0
  0
LWPOLYLINE
  5
29A
330
298
100
AcDbEntity
  8
Default
  6
Continuous
 62
     7
 48
25.4
370
    20
100
AcDbPolyline
 90
        4
 70
     1
 43
0.0
 10
403.1301426674
 20
34.1115164928
 10
406.6301427754
 20
34.6948498441
 10
403.1301426674
 20
35.2781831954
 10
403.1301426674
 20
34.1115164928
  0
HATCH
  5
29B
330
298
100
AcDbEntity
  8
Default
  6
Continuous
 62
     7
 48
25.4
100
AcDbHatch
 10
0.0
 20
0.0
 30
0.0
210
0.0
220
0.0
230
1.0
  2
SOLID
 70
     1
 71
     0
 91
        1
 92
        1
 93
        3
 72
     1
 10
310.1301413933543
 20
34.11151649276461
 11
310.1301413933543
 21
35.27818319544241
 72
     1
 10
310.1301413933543
 20
35.27818319544241
 11
306.6301412853209
 21
34.69484984410351
 72
     1
 10
306.6301412853209
 20
34.69484984410351
 11
310.1301413933543
 21
34.11151649276461
 97
        0
 75
     0
 76
     1
 98
        0
  0
LWPOLYLINE
  5
29C
330
298
100
AcDbEntity
  8
Default
  6
Continuous
 62
     7
 48
25.4
370
    20
100
AcDbPolyline
 90
        4
 70
     1
 43
0.0
 10
310.1301413934
 20
34.1115164928
 10
306.6301412853
 20
34.6948498441
 10
310.1301413934
 20
35.2781831954
 10
310.1301413934
 20
34.1115164928
  0
LINE
  5
29D
330
298
100
AcDbEntity
  8
Default
  6
Continuous
 62
     7
 48
25.4
100
AcDbLine
 10
406.6301427754
 20
54.7546673147
 30
0.0
 11
406.6301427754
 21
32.9448497901
 31
0.0
  0
LINE
  5
29E
330
298
100
AcDbEntity
  8
Default
  6
Continuous
 62
     7
 48
25.4
100
AcDbLine
 10
306.6301427754
 20
54.7546673147
 30
0.0
 11
306.6301427754
 21
32.9448497901
 31
0.0
  0
LINE
  5
29F
330
298
100
AcDbEntity
  8
Default
  6
Continuous
 62
     7
 48
25.4
100
AcDbLine
 10
406.6301427754
 20
34.6948498441
 30
0.0
 11
306.6301412853
 21
34.6948498441
 31
0.0
  0
TEXT
  5
2A0
330
298
100
AcDbEntity
  8
Default
  6
Continuous
 62
     7
 48
25.4
100
AcDbText
 10
353.2892329395
 20
35.5698498441
 30
0.0
 40
3.5
  1
100
  7
SEACAD_arial_ttf
 11
353.2892329395
 21
39.0698498441
 31
0.0
100
AcDbText
 73
     3
  0
ENDBLK
  5
2A2
330
298
100
AcDbEntity
  8
0
100
AcDbBlockEnd
  0
BLOCK
  5
2AD
330
2A4
100
AcDbEntity
  8
0
100
AcDbBlockBegin
  2
DMBLK29
 70
     0
 71
     0
 10
0.0
 20
0.0
 30
0.0
  3
DMBLK29
  1

  0
HATCH
  5
2A5
330
2A4
100
AcDbEntity
  8
Default
  6
Continuous
 62
     7
 48
25.4
100
AcDbHatch
 10
0.0
 20
0.0
 30
0.0
210
0.0
220
0.0
230
1.0
  2
SOLID
 70
     1
 71
     0
 91
        1
 92
        1
 93
        3
 72
     1
 10
137.585986790117
 20
447.2335942616031
 11
137.585986790117
 21
446.0669275589252
 72
     1
 10
137.585986790117
 20
446.0669275589252
 11
141.0859868981504
 21
446.6502609102641
 72
     1
 10
141.0859868981504
 20
446.6502609102641
 11
137.585986790117
 21
447.2335942616031
 97
        0
 75
     0
 76
     1
 98
        0
  0
LWPOLYLINE
  5
2A6
330
2A4
100
AcDbEntity
  8
Default
  6
Continuous
 62
     7
 48
25.4
370
    20
100
AcDbPolyline
 90
        4
 70
     1
 43
0.0
 10
137.5859867901
 20
447.2335942616
 10
141.0859868982
 20
446.6502609103
 10
137.5859867901
 20
446.0669275589
 10
137.5859867901
 20
447.2335942616
  0
HATCH
  5
2A7
330
2A4
100
AcDbEntity
  8
Default
  6
Continuous
 62
     7
 48
25.4
100
AcDbHatch
 10
0.0
 20
0.0
 30
0.0
210
0.0
220
0.0
230
1.0
  2
SOLID
 70
     1
 71
     0
 91
        1
 92
        1
 93
        3
 72
     1
 10
121.9585700080359
 20
447.2335942616031
 11
118.4585699000024
 21
446.6502609102641
 72
     1
 10
118.4585699000024
 20
446.6502609102641
 11
121.9585700080359
 21
446.0669275589252
 72
     1
 10
121.9585700080359
 20
446.0669275589252
 11
121.9585700080359
 21
447.2335942616031
 97
        0
 75
     0
 76
     1
 98
        0
  0
LWPOLYLINE
  5
2A8
330
2A4
100
AcDbEntity
  8
Default
  6
Continuous
 62
     7
 48
25.4
370
    20
100
AcDbPolyline
 90
        4
 70
     1
 43
0.0
 10
121.958570008
 20
447.2335942616
 10
118.4585699
 20
446.6502609103
 10
121.958570008
 20
446.0669275589
 10
121.958570008
 20
447.2335942616
  0
LINE
  5
2A9
330
2A4
100
AcDbEntity
  8
Default
  6
Continuous
 62
     7
 48
25.4
100
AcDbLine
 10
141.0859868982
 20
434.8978128655
 30
0.0
 11
141.0859868982
 21
448.4002609643
 31
0.0
  0
LINE
  5
2AA
330
2A4
100
AcDbEntity
  8
Default
  6
Continuous
 62
     7
 48
25.4
100
AcDbLine
 10
118.4585699002
 20
412.2703958676
 30
0.0
 11
118.4585699002
 21
448.4002609643
 31
0.0
  0
LINE
  5
2AB
330
2A4
100
AcDbEntity
  8
Default
  6
Continuous
 62
     7
 48
25.4
100
AcDbLine
 10
141.0859868982
 20
446.6502609103
 30
0.0
 11
118.4585699
 21
446.6502609103
 31
0.0
  0
TEXT
  5
2AC
330
2A4
100
AcDbEntity
  8
Default
  6
Continuous
 62
     7
 48
25.4
100
AcDbText
 10
125.8745511263
 20
447.5252609103
 30
0.0
 40
3.5
  1
22,6
  7
SEACAD_arial_ttf
 11
125.8745511263
 21
451.0252609103
 31
0.0
100
AcDbText
 73
     3
  0
ENDBLK
  5
2AE
330
2A4
100
AcDbEntity
  8
0
100
AcDbBlockEnd
  0
BLOCK
  5
2B9
330
2B0
100
AcDbEntity
  8
0
100
AcDbBlockBegin
  2
DMBLK30
 70
     0
 71
     0
 10
0.0
 20
0.0
 30
0.0
  3
DMBLK30
  1

  0
HATCH
  5
2B1
330
2B0
100
AcDbEntity
  8
Default
  6
Continuous
 62
     7
 48
25.4
100
AcDbHatch
 10
0.0
 20
0.0
 30
0.0
210
0.0
220
0.0
230
1.0
  2
SOLID
 70
     1
 71
     0
 91
        1
 92
        1
 93
        3
 72
     1
 10
82.90504617279863
 20
412.9703960754485
 11
83.48837952413754
 21
409.4703959674151
 72
     1
 10
83.48837952413754
 20
409.4703959674151
 11
84.07171287547645
 21
412.9703960754485
 72
     1
 10
84.07171287547645
 20
412.9703960754485
 11
82.90504617279863
 21
412.9703960754485
 97
        0
 75
     0
 76
     1
 98
        0
  0
LWPOLYLINE
  5
2B2
330
2B0
100
AcDbEntity
  8
Default
  6
Continuous
 62
     7
 48
25.4
370
    20
100
AcDbPolyline
 90
        4
 70
     1
 43
0.0
 10
82.9050461728
 20
412.9703960754
 10
83.4883795241
 20
409.4703959674
 10
84.0717128755
 20
412.9703960754
 10
82.9050461728
 20
412.9703960754
  0
HATCH
  5
2B3
330
2B0
100
AcDbEntity
  8
Default
  6
Continuous
 62
     7
 48
25.4
100
AcDbHatch
 10
0.0
 20
0.0
 30
0.0
210
0.0
220
0.0
230
1.0
  2
SOLID
 70
     1
 71
     0
 91
        1
 92
        1
 93
        3
 72
     1
 10
82.90504617279863
 20
428.5978128575296
 11
84.07171287547645
 21
428.5978128575296
 72
     1
 10
84.07171287547645
 20
428.5978128575296
 11
83.48837952413754
 21
432.097812965563
 72
     1
 10
83.48837952413754
 20
432.097812965563
 11
82.90504617279863
 21
428.5978128575296
 97
        0
 75
     0
 76
     1
 98
        0
  0
LWPOLYLINE
  5
2B4
330
2B0
100
AcDbEntity
  8
Default
  6
Continuous
 62
     7
 48
25.4
370
    20
100
AcDbPolyline
 90
        4
 70
     1
 43
0.0
 10
82.9050461728
 20
428.5978128575
 10
83.4883795241
 20
432.0978129656
 10
84.0717128755
 20
428.5978128575
 10
82.9050461728
 20
428.5978128575
  0
LINE
  5
2B5
330
2B0
100
AcDbEntity
  8
Default
  6
Continuous
 62
     7
 48
25.4
100
AcDbLine
 10
115.65857
 20
409.4703959674
 30
0.0
 11
81.7383794701
 21
409.4703959674
 31
0.0
  0
LINE
  5
2B6
330
2B0
100
AcDbEntity
  8
Default
  6
Continuous
 62
     7
 48
25.4
100
AcDbLine
 10
138.285986998
 20
432.0978129654
 30
0.0
 11
81.7383794701
 21
432.0978129654
 31
0.0
  0
LINE
  5
2B7
330
2B0
100
AcDbEntity
  8
Default
  6
Continuous
 62
     7
 48
25.4
100
AcDbLine
 10
83.4883795241
 20
409.4703959674
 30
0.0
 11
83.4883795241
 21
432.0978129656
 31
0.0
  0
TEXT
  5
2B8
330
2B0
100
AcDbEntity
  8
Default
  6
Continuous
 62
     7
 48
25.4
100
AcDbText
 10
82.6133795241
 20
416.8863771938
 30
0.0
 40
3.5
  1
22,6
 50
90.0
  7
SEACAD_arial_ttf
 11
79.1133795241
 21
416.8863771938
 31
0.0
100
AcDbText
 73
     3
  0
ENDBLK
  5
2BA
330
2B0
100
AcDbEntity
  8
0
100
AcDbBlockEnd
  0
BLOCK
  5
2C5
330
2BC
100
AcDbEntity
  8
0
100
AcDbBlockBegin
  2
DMBLK31
 70
     0
 71
     0
 10
0.0
 20
0.0
 30
0.0
  3
DMBLK31
  1

  0
HATCH
  5
2BD
330
2BC
100
AcDbEntity
  8
Default
  6
Continuous
 62
     7
 48
25.4
100
AcDbHatch
 10
0.0
 20
0.0
 30
0.0
210
0.0
220
0.0
230
1.0
  2
SOLID
 70
     1
 71
     0
 91
        1
 92
        1
 93
        3
 72
     1
 10
82.90504617262022
 20
435.597813073418
 11
83.48837952395913
 21
432.0978129653846
 72
     1
 10
83.48837952395913
 20
432.0978129653846
 11
84.07171287529803
 21
435.597813073418
 72
     1
 10
84.07171287529803
 20
435.597813073418
 11
82.90504617262022
 21
435.597813073418
 97
        0
 75
     0
 76
     1
 98
        0
  0
LWPOLYLINE
  5
2BE
330
2BC
100
AcDbEntity
  8
Default
  6
Continuous
 62
     7
 48
25.4
370
    20
100
AcDbPolyline
 90
        4
 70
     1
 43
0.0
 10
82.9050461726
 20
435.5978130734
 10
83.488379524
 20
432.0978129654
 10
84.0717128753
 20
435.5978130734
 10
82.9050461726
 20
435.5978130734
  0
HATCH
  5
2BF
330
2BC
100
AcDbEntity
  8
Default
  6
Continuous
 62
     7
 48
25.4
100
AcDbHatch
 10
0.0
 20
0.0
 30
0.0
210
0.0
220
0.0
230
1.0
  2
SOLID
 70
     1
 71
     0
 91
        1
 92
        1
 93
        3
 72
     1
 10
82.90504617262022
 20
439.297812857353
 11
84.07171287529803
 21
439.297812857353
 72
     1
 10
84.07171287529803
 20
439.297812857353
 11
83.48837952395913
 21
442.7978129653864
 72
     1
 10
83.48837952395913
 20
442.7978129653864
 11
82.90504617262022
 21
439.297812857353
 97
        0
 75
     0
 76
     1
 98
        0
  0
LWPOLYLINE
  5
2C0
330
2BC
100
AcDbEntity
  8
Default
  6
Continuous
 62
     7
 48
25.4
370
    20
100
AcDbPolyline
 90
        4
 70
     1
 43
0.0
 10
82.9050461726
 20
439.2978128574
 10
83.488379524
 20
442.7978129654
 10
84.0717128753
 20
439.2978128574
 10
82.9050461726
 20
439.2978128574
  0
LINE
  5
2C1
330
2BC
100
AcDbEntity
  8
Default
  6
Continuous
 62
     7
 48
25.4
100
AcDbLine
 10
138.285986998
 20
432.0978129654
 30
0.0
 11
81.7383794699
 21
432.0978129654
 31
0.0
  0
LINE
  5
2C2
330
2BC
100
AcDbEntity
  8
Default
  6
Continuous
 62
     7
 48
25.4
100
AcDbLine
 10
138.285986998
 20
442.7978129654
 30
0.0
 11
81.7383794699
 21
442.7978129654
 31
0.0
  0
LINE
  5
2C3
330
2BC
100
AcDbEntity
  8
Default
  6
Continuous
 62
     7
 48
25.4
100
AcDbLine
 10
83.488379524
 20
432.0978129654
 30
0.0
 11
83.488379524
 21
458.4578981994
 31
0.0
  0
TEXT
  5
2C4
330
2BC
100
AcDbEntity
  8
Default
  6
Continuous
 62
     7
 48
25.4
100
AcDbText
 10
82.613379524
 20
449.4374446331
 30
0.0
 40
3.5
  1
10,7
 50
90.0
  7
SEACAD_arial_ttf
 11
79.113379524
 21
449.4374446331
 31
0.0
100
AcDbText
 73
     3
  0
ENDBLK
  5
2C6
330
2BC
100
AcDbEntity
  8
0
100
AcDbBlockEnd
  0
BLOCK
  5
2D1
330
2C8
100
AcDbEntity
  8
0
100
AcDbBlockBegin
  2
DMBLK32
 70
     0
 71
     0
 10
0.0
 20
0.0
 30
0.0
  3
DMBLK32
  1

  0
HATCH
  5
2C9
330
2C8
100
AcDbEntity
  8
Default
  6
Continuous
 62
     7
 48
25.4
100
AcDbHatch
 10
0.0
 20
0.0
 30
0.0
210
0.0
220
0.0
230
1.0
  2
SOLID
 70
     1
 71
     0
 91
        1
 92
        1
 93
        3
 72
     1
 10
114.9585697921474
 20
447.2335942617815
 11
114.9585697921474
 21
446.0669275591036
 72
     1
 10
114.9585697921474
 20
446.0669275591036
 11
118.4585699001809
 21
446.6502609104426
 72
     1
 10
118.4585699001809
 20
446.6502609104426
 11
114.9585697921474
 21
447.2335942617815
 97
        0
 75
     0
 76
     1
 98
        0
  0
LWPOLYLINE
  5
2CA
330
2C8
100
AcDbEntity
  8
Default
  6
Continuous
 62
     7
 48
25.4
370
    20
100
AcDbPolyline
 90
        4
 70
     1
 43
0.0
 10
114.9585697921
 20
447.2335942618
 10
118.4585699002
 20
446.6502609104
 10
114.9585697921
 20
446.0669275591
 10
114.9585697921
 20
447.2335942618
  0
HATCH
  5
2CB
330
2C8
100
AcDbEntity
  8
Default
  6
Continuous
 62
     7
 48
25.4
100
AcDbHatch
 10
0.0
 20
0.0
 30
0.0
210
0.0
220
0.0
230
1.0
  2
SOLID
 70
     1
 71
     0
 91
        1
 92
        1
 93
        3
 72
     1
 10
111.2585700082107
 20
447.2335942617815
 11
107.7585699001773
 21
446.6502609104426
 72
     1
 10
107.7585699001773
 20
446.6502609104426
 11
111.2585700082107
 21
446.0669275591036
 72
     1
 10
111.2585700082107
 20
446.0669275591036
 11
111.2585700082107
 21
447.2335942617815
 97
        0
 75
     0
 76
     1
 98
        0
  0
LWPOLYLINE
  5
2CC
330
2C8
100
AcDbEntity
  8
Default
  6
Continuous
 62
     7
 48
25.4
370
    20
100
AcDbPolyline
 90
        4
 70
     1
 43
0.0
 10
111.2585700082
 20
447.2335942618
 10
107.7585699002
 20
446.6502609104
 10
111.2585700082
 20
446.0669275591
 10
111.2585700082
 20
447.2335942618
  0
LINE
  5
2CD
330
2C8
100
AcDbEntity
  8
Default
  6
Continuous
 62
     7
 48
25.4
100
AcDbLine
 10
118.4585699002
 20
412.2703958676
 30
0.0
 11
118.4585699002
 21
448.4002609645
 31
0.0
  0
LINE
  5
2CE
330
2C8
100
AcDbEntity
  8
Default
  6
Continuous
 62
     7
 48
25.4
100
AcDbLine
 10
107.7585699002
 20
412.2703958676
 30
0.0
 11
107.7585699002
 21
448.4002609645
 31
0.0
  0
LINE
  5
2CF
330
2C8
100
AcDbEntity
  8
Default
  6
Continuous
 62
     7
 48
25.4
100
AcDbLine
 10
118.4585699002
 20
446.6502609104
 30
0.0
 11
94.5276756892
 21
446.6502609104
 31
0.0
  0
TEXT
  5
2D0
330
2C8
100
AcDbEntity
  8
Default
  6
Continuous
 62
     7
 48
25.4
100
AcDbText
 10
95.7526765727
 20
447.5252609104
 30
0.0
 40
3.5
  1
10,7
  7
SEACAD_arial_ttf
 11
95.7526765727
 21
451.0252609104
 31
0.0
100
AcDbText
 73
     3
  0
ENDBLK
  5
2D2
330
2C8
100
AcDbEntity
  8
0
100
AcDbBlockEnd
  0
BLOCK
  5
2DD
330
2D4
100
AcDbEntity
  8
0
100
AcDbBlockBegin
  2
DMBLK33
 70
     0
 71
     0
 10
0.0
 20
0.0
 30
0.0
  3
DMBLK33
  1

  0
HATCH
  5
2D5
330
2D4
100
AcDbEntity
  8
Default
  6
Continuous
 62
     7
 48
25.4
100
AcDbHatch
 10
0.0
 20
0.0
 30
0.0
210
0.0
220
0.0
230
1.0
  2
SOLID
 70
     1
 71
     0
 91
        1
 92
        1
 93
        3
 72
     1
 10
192.7824709381962
 20
426.7978128573494
 11
193.949137640874
 21
426.7978128573494
 72
     1
 10
193.949137640874
 20
426.7978128573494
 11
193.3658042895351
 21
430.2978129653828
 72
     1
 10
193.3658042895351
 20
430.2978129653828
 11
192.7824709381962
 21
426.7978128573494
 97
        0
 75
     0
 76
     1
 98
        0
  0
LWPOLYLINE
  5
2D6
330
2D4
100
AcDbEntity
  8
Default
  6
Continuous
 62
     7
 48
25.4
370
    20
100
AcDbPolyline
 90
        4
 70
     1
 43
0.0
 10
192.7824709382
 20
426.7978128573
 10
193.3658042895
 20
430.2978129654
 10
193.9491376409
 20
426.7978128573
 10
192.7824709382
 20
426.7978128573
  0
HATCH
  5
2D7
330
2D4
100
AcDbEntity
  8
Default
  6
Continuous
 62
     7
 48
25.4
100
AcDbHatch
 10
0.0
 20
0.0
 30
0.0
210
0.0
220
0.0
230
1.0
  2
SOLID
 70
     1
 71
     0
 91
        1
 92
        1
 93
        3
 72
     1
 10
192.7824709381962
 20
421.7978129691081
 11
193.3658042895351
 21
418.2978128610747
 72
     1
 10
193.3658042895351
 20
418.2978128610747
 11
193.949137640874
 21
421.7978129691081
 72
     1
 10
193.949137640874
 20
421.7978129691081
 11
192.7824709381962
 21
421.7978129691081
 97
        0
 75
     0
 76
     1
 98
        0
  0
LWPOLYLINE
  5
2D8
330
2D4
100
AcDbEntity
  8
Default
  6
Continuous
 62
     7
 48
25.4
370
    20
100
AcDbPolyline
 90
        4
 70
     1
 43
0.0
 10
192.7824709382
 20
421.7978129691
 10
193.3658042895
 20
418.2978128611
 10
193.9491376409
 20
421.7978129691
 10
192.7824709382
 20
421.7978129691
  0
LINE
  5
2D9
330
2D4
100
AcDbEntity
  8
Default
  6
Continuous
 62
     7
 48
25.4
100
AcDbLine
 10
203.8301428753
 20
430.2978129654
 30
0.0
 11
191.6158042355
 21
430.2978129654
 31
0.0
  0
LINE
  5
2DA
330
2D4
100
AcDbEntity
  8
Default
  6
Continuous
 62
     7
 48
25.4
100
AcDbLine
 10
203.8301428753
 20
418.2978129654
 30
0.0
 11
191.6158042355
 21
418.2978129654
 31
0.0
  0
LINE
  5
2DB
330
2D4
100
AcDbEntity
  8
Default
  6
Continuous
 62
     7
 48
25.4
100
AcDbLine
 10
193.3658042895
 20
439.7643772482
 30
0.0
 11
193.3658042895
 21
418.2978128611
 31
0.0
  0
TEXT
  5
2DC
330
2D4
100
AcDbEntity
  8
Default
  6
Continuous
 62
     7
 48
25.4
100
AcDbText
 10
192.4908042895
 20
434.0848315424
 30
0.0
 40
3.5
  1
12
 50
90.0
  7
SEACAD_arial_ttf
 11
188.9908042895
 21
434.0848315424
 31
0.0
100
AcDbText
 73
     3
  0
ENDBLK
  5
2DE
330
2D4
100
AcDbEntity
  8
0
100
AcDbBlockEnd
  0
BLOCK
  5
2E8
330
2E0
100
AcDbEntity
  8
0
100
AcDbBlockBegin
  2
DMBLK34
 70
     0
 71
     0
 10
0.0
 20
0.0
 30
0.0
  3
DMBLK34
  1

  0
HATCH
  5
2E1
330
2E0
100
AcDbEntity
  8
Default
  6
Continuous
 62
     7
 48
25.4
100
AcDbHatch
 10
0.0
 20
0.0
 30
0.0
210
0.0
220
0.0
230
1.0
  2
SOLID
 70
     1
 71
     0
 91
        1
 92
        1
 93
        3
 72
     1
 10
184.5798520188832
 20
421.7978130734163
 11
185.1631853702221
 21
418.2978129653828
 72
     1
 10
185.1631853702221
 20
418.2978129653828
 11
185.746518721561
 21
421.7978130734163
 72
     1
 10
185.746518721561
 20
421.7978130734163
 11
184.5798520188832
 21
421.7978130734163
 97
        0
 75
     0
 76
     1
 98
        0
  0
LWPOLYLINE
  5
2E2
330
2E0
100
AcDbEntity
  8
Default
  6
Continuous
 62
     7
 48
25.4
370
    20
100
AcDbPolyline
 90
        4
 70
     1
 43
0.0
 10
184.5798520189
 20
421.7978130734
 10
185.1631853702
 20
418.2978129654
 10
185.7465187216
 20
421.7978130734
 10
184.5798520189
 20
421.7978130734
  0
HATCH
  5
2E3
330
2E0
100
AcDbEntity
  8
Default
  6
Continuous
 62
     7
 48
25.4
100
AcDbHatch
 10
0.0
 20
0.0
 30
0.0
210
0.0
220
0.0
230
1.0
  2
SOLID
 70
     1
 71
     0
 91
        1
 92
        1
 93
        3
 72
     1
 10
184.5798520188832
 20
439.2978122165995
 11
185.746518721561
 21
439.2978122165995
 72
     1
 10
185.746518721561
 20
439.2978122165995
 11
185.1631853702221
 21
442.7978123246329
 72
     1
 10
185.1631853702221
 20
442.7978123246329
 11
184.5798520188832
 21
439.2978122165995
 97
        0
 75
     0
 76
     1
 98
        0
  0
LWPOLYLINE
  5
2E4
330
2E0
100
AcDbEntity
  8
Default
  6
Continuous
 62
     7
 48
25.4
370
    20
100
AcDbPolyline
 90
        4
 70
     1
 43
0.0
 10
184.5798520189
 20
439.2978122166
 10
185.1631853702
 20
442.7978123246
 10
185.7465187216
 20
439.2978122166
 10
184.5798520189
 20
439.2978122166
  0
LINE
  5
2E5
330
2E0
100
AcDbEntity
  8
Default
  6
Continuous
 62
     7
 48
25.4
100
AcDbLine
 10
203.8301428753
 20
418.2978129654
 30
0.0
 11
183.4131853162
 21
418.2978129654
 31
0.0
  0
LINE
  5
2E6
330
2E0
100
AcDbEntity
  8
Default
  6
Continuous
 62
     7
 48
25.4
100
AcDbLine
 10
185.1631853702
 20
418.2978129654
 30
0.0
 11
185.1631853702
 21
442.7978123246
 31
0.0
  0
TEXT
  5
2E7
330
2E0
100
AcDbEntity
  8
Default
  6
Continuous
 62
     7
 48
25.4
100
AcDbText
 10
184.2881853702
 20
426.6500853723
 30
0.0
 40
3.5
  1
24,5
 50
90.0
  7
SEACAD_arial_ttf
 11
180.7881853702
 21
426.6500853723
 31
0.0
100
AcDbText
 73
     3
  0
ENDBLK
  5
2E9
330
2E0
100
AcDbEntity
  8
0
100
AcDbBlockEnd
  0
ENDSEC
  0
SECTION
  2
ENTITIES
  0
LINE
  5
2B
330
1F
100
AcDbEntity
  8
Default
  6
Continuous
 62
     7
 48
25.4
100
AcDbLine
 10
3.7935087179
 20
281.545697737
 30
0.0
 11
654.6101260093
 21
281.545697737
 31
0.0
  0
LINE
  5
2C
330
1F
100
AcDbEntity
  8
Default
  6
Continuous
 62
     7
 48
25.4
100
AcDbLine
 10
233.272200364
 20
281.545697737
 30
0.0
 11
233.272200364
 21
-90.8869329673
 31
0.0
  0
LINE
  5
2D
330
1F
100
AcDbEntity
  8
Default
  6
Continuous
 62
     7
 48
25.4
100
AcDbLine
 10
391.273922481
 20
281.545697737
 30
0.0
 11
391.273922481
 21
-90.8869329673
 31
0.0
  0
LINE
  5
2E
330
1F
100
AcDbEntity
  8
Default
  6
Continuous
 62
     7
 48
25.4
100
AcDbLine
 10
316.0350071872
 20
281.545697737
 30
0.0
 11
316.0350071872
 21
520.4292537949
 31
0.0
  0
INSERT
  5
30
330
1F
100
AcDbEntity
  8
Default
100
AcDbBlockReference
  2
SEANNOT_GROUP
 10
0.0
 20
0.0
 30
0.0
  0
INSERT
  5
37
330
1F
100
AcDbEntity
  8
Default
100
AcDbBlockReference
  2
SEANNOT_GROUP1
 10
0.0
 20
0.0
 30
0.0
  0
INSERT
  5
3D
330
1F
100
AcDbEntity
  8
Default
100
AcDbBlockReference
  2
SEANNOT_GROUP2
 10
0.0
 20
0.0
 30
0.0
  0
INSERT
  5
43
330
1F
100
AcDbEntity
  8
Default
100
AcDbBlockReference
  2
SEANNOT_GROUP3
 10
0.0
 20
0.0
 30
0.0
  0
INSERT
  5
49
330
1F
100
AcDbEntity
  8
Default
100
AcDbBlockReference
  2
SEANNOT_GROUP4
 10
0.0
 20
0.0
 30
0.0
  0
INSERT
  5
4F
330
1F
100
AcDbEntity
  8
Default
100
AcDbBlockReference
  2
SEANNOT_GROUP5
 10
0.0
 20
0.0
 30
0.0
  0
INSERT
  5
55
330
1F
100
AcDbEntity
  8
Default
100
AcDbBlockReference
  2
SEANNOT_GROUP6
 10
0.0
 20
0.0
 30
0.0
  0
INSERT
  5
5B
330
1F
100
AcDbEntity
  8
Default
100
AcDbBlockReference
  2
SEANNOT_GROUP7
 10
0.0
 20
0.0
 30
0.0
  0
INSERT
  5
61
330
1F
100
AcDbEntity
  8
Default
100
AcDbBlockReference
  2
SEANNOT_GROUP8
 10
0.0
 20
0.0
 30
0.0
  0
INSERT
  5
67
330
1F
100
AcDbEntity
  8
Default
100
AcDbBlockReference
  2
SEANNOT_GROUP9
 10
0.0
 20
0.0
 30
0.0
  0
INSERT
  5
6D
330
1F
100
AcDbEntity
  8
Default
100
AcDbBlockReference
  2
SEANNOT_GROUP10
 10
0.0
 20
0.0
 30
0.0
  0
INSERT
  5
73
330
1F
100
AcDbEntity
  8
Default
100
AcDbBlockReference
  2
SEANNOT_GROUP11
 10
0.0
 20
0.0
 30
0.0
  0
INSERT
  5
79
330
1F
100
AcDbEntity
  8
Default
100
AcDbBlockReference
  2
SEANNOT_GROUP12
 10
0.0
 20
0.0
 30
0.0
  0
INSERT
  5
7F
330
1F
100
AcDbEntity
  8
Default
100
AcDbBlockReference
  2
SEANNOT_GROUP13
 10
0.0
 20
0.0
 30
0.0
  0
INSERT
  5
85
330
1F
100
AcDbEntity
  8
Default
100
AcDbBlockReference
  2
SEANNOT_GROUP14
 10
0.0
 20
0.0
 30
0.0
  0
INSERT
  5
8B
330
1F
100
AcDbEntity
  8
Default
100
AcDbBlockReference
  2
SEANNOT_GROUP15
 10
0.0
 20
0.0
 30
0.0
  0
INSERT
  5
91
330
1F
100
AcDbEntity
  8
Default
100
AcDbBlockReference
  2
SEANNOT_GROUP16
 10
0.0
 20
0.0
 30
0.0
  0
INSERT
  5
97
330
1F
100
AcDbEntity
  8
Default
100
AcDbBlockReference
  2
SEANNOT_GROUP17
 10
0.0
 20
0.0
 30
0.0
  0
INSERT
  5
9D
330
1F
100
AcDbEntity
  8
Default
100
AcDbBlockReference
  2
SEANNOT_GROUP18
 10
0.0
 20
0.0
 30
0.0
  0
INSERT
  5
A3
330
1F
100
AcDbEntity
  8
Default
100
AcDbBlockReference
  2
SEANNOT_GROUP19
 10
0.0
 20
0.0
 30
0.0
  0
INSERT
  5
A9
330
1F
100
AcDbEntity
  8
Default
100
AcDbBlockReference
  2
SEANNOT_GROUP20
 10
0.0
 20
0.0
 30
0.0
  0
INSERT
  5
AF
330
1F
100
AcDbEntity
  8
Default
100
AcDbBlockReference
  2
SEANNOT_GROUP21
 10
0.0
 20
0.0
 30
0.0
  0
INSERT
  5
B5
330
1F
100
AcDbEntity
  8
Default
100
AcDbBlockReference
  2
SEANNOT_GROUP22
 10
0.0
 20
0.0
 30
0.0
  0
INSERT
  5
BB
330
1F
100
AcDbEntity
  8
Default
100
AcDbBlockReference
  2
SEANNOT_GROUP23
 10
0.0
 20
0.0
 30
0.0
  0
INSERT
  5
C1
330
1F
100
AcDbEntity
  8
Default
100
AcDbBlockReference
  2
SEANNOT_GROUP24
 10
0.0
 20
0.0
 30
0.0
  0
INSERT
  5
C7
330
1F
100
AcDbEntity
  8
Default
100
AcDbBlockReference
  2
SEANNOT_GROUP25
 10
0.0
 20
0.0
 30
0.0
  0
INSERT
  5
CD
330
1F
100
AcDbEntity
  8
Default
100
AcDbBlockReference
  2
SEANNOT_GROUP26
 10
0.0
 20
0.0
 30
0.0
  0
INSERT
  5
D3
330
1F
100
AcDbEntity
  8
Default
100
AcDbBlockReference
  2
SEANNOT_GROUP27
 10
0.0
 20
0.0
 30
0.0
  0
INSERT
  5
D9
330
1F
100
AcDbEntity
  8
Default
100
AcDbBlockReference
  2
SEANNOT_GROUP28
 10
0.0
 20
0.0
 30
0.0
  0
INSERT
  5
DF
330
1F
100
AcDbEntity
  8
Default
100
AcDbBlockReference
  2
SEANNOT_GROUP29
 10
0.0
 20
0.0
 30
0.0
  0
INSERT
  5
E5
330
1F
100
AcDbEntity
  8
Default
100
AcDbBlockReference
  2
SEANNOT_GROUP30
 10
0.0
 20
0.0
 30
0.0
  0
INSERT
  5
EB
330
1F
100
AcDbEntity
  8
Default
100
AcDbBlockReference
  2
SEANNOT_GROUP31
 10
0.0
 20
0.0
 30
0.0
  0
INSERT
  5
F1
330
1F
100
AcDbEntity
  8
Default
100
AcDbBlockReference
  2
SEANNOT_GROUP32
 10
0.0
 20
0.0
 30
0.0
  0
INSERT
  5
F7
330
1F
100
AcDbEntity
  8
Default
100
AcDbBlockReference
  2
SEANNOT_GROUP33
 10
0.0
 20
0.0
 30
0.0
  0
LINE
  5
FC
330
1F
100
AcDbEntity
  8
Default
  6
Continuous
 62
     7
 48
25.4
100
AcDbLine
 10
129.5519953163
 20
293.0652082754
 30
0.0
 11
129.5519953163
 21
274.4703719083
 31
0.0
  0
LINE
  5
FD
330
1F
100
AcDbEntity
  8
Default
  6
Continuous
 62
     7
 48
25.4
100
AcDbLine
 10
210.7820699728
 20
293.0652082754
 30
0.0
 11
210.7820699728
 21
274.4703719083
 31
0.0
  0
LINE
  5
FE
330
1F
100
AcDbEntity
  8
Default
  6
Continuous
 62
     7
 48
25.4
100
AcDbLine
 10
297.8841982189
 20
293.0652082754
 30
0.0
 11
297.8841982189
 21
274.4703719083
 31
0.0
  0
LINE
  5
FF
330
1F
100
AcDbEntity
  8
Default
  6
Continuous
 62
     7
 48
25.4
100
AcDbLine
 10
357.5834097134
 20
291.1078570789
 30
0.0
 11
357.5834097134
 21
281.545697737
 31
0.0
  0
LINE
  5
100
330
1F
100
AcDbEntity
  8
Default
  6
Continuous
 62
     7
 48
25.4
100
AcDbLine
 10
357.5834097134
 20
281.545697737
 30
0.0
 11
357.5834097134
 21
267.6196427204
 31
0.0
  0
LINE
  5
101
330
1F
100
AcDbEntity
  8
Default
  6
Continuous
 62
     7
 48
25.4
100
AcDbLine
 10
453.493618344
 20
291.1078570789
 30
0.0
 11
453.493618344
 21
267.6196427204
 31
0.0
  0
LINE
  5
102
330
1F
100
AcDbEntity
  8
Default
  6
Continuous
 62
     7
 48
25.4
100
AcDbLine
 10
535.7023685987
 20
281.545697737
 30
0.0
 11
535.7023685987
 21
291.1078570789
 31
0.0
  0
LINE
  5
103
330
1F
100
AcDbEntity
  8
Default
  6
Continuous
 62
     7
 48
25.4
100
AcDbLine
 10
535.7023685987
 20
291.1078570789
 30
0.0
 11
535.7023685987
 21
267.6196427204
 31
0.0
  0
LINE
  5
104
330
1F
100
AcDbEntity
  8
Default
  6
Continuous
 62
     7
 48
25.4
100
AcDbLine
 10
306.6922786033
 20
325.3615030184
 30
0.0
 11
323.3297637739
 21
325.3615030184
 31
0.0
  0
LINE
  5
105
330
1F
100
AcDbEntity
  8
Default
  6
Continuous
 62
     7
 48
25.4
100
AcDbLine
 10
306.6922786033
 20
386.0393901112
 30
0.0
 11
323.3297637739
 21
386.0393901112
 31
0.0
  0
LINE
  5
106
330
1F
100
AcDbEntity
  8
Default
  6
Continuous
 62
     7
 48
25.4
100
AcDbLine
 10
306.6301427754
 20
453.5680063918
 30
0.0
 11
316.0350071872
 21
453.5680063918
 31
0.0
  0
LINE
  5
107
330
1F
100
AcDbEntity
  8
Default
  6
Continuous
 62
     7
 48
25.4
100
AcDbLine
 10
316.0350071872
 20
453.5680063918
 30
0.0
 11
323.3297637739
 21
453.5680063918
 31
0.0
  0
LINE
  5
108
330
1F
100
AcDbEntity
  8
Default
  6
Continuous
 62
     7
 48
25.4
100
AcDbLine
 10
239.1636623227
 20
246.0887795584
 30
0.0
 11
221.5475015538
 21
246.0887795584
 31
0.0
  0
LINE
  5
109
330
1F
100
AcDbEntity
  8
Default
  6
Continuous
 62
     7
 48
25.4
100
AcDbLine
 10
221.5475015538
 20
184.4322168674
 30
0.0
 11
239.1636623227
 21
184.4322168674
 31
0.0
  0
LINE
  5
10A
330
1F
100
AcDbEntity
  8
Default
  6
Continuous
 62
     7
 48
25.4
100
AcDbLine
 10
221.5475015538
 20
115.9249249884
 30
0.0
 11
239.1636623227
 21
115.9249249884
 31
0.0
  0
LINE
  5
10B
330
1F
100
AcDbEntity
  8
Default
  6
Continuous
 62
     7
 48
25.4
100
AcDbLine
 10
221.5475015538
 20
28.8227967423
 30
0.0
 11
239.1636623227
 21
28.8227967423
 31
0.0
  0
LINE
  5
10C
330
1F
100
AcDbEntity
  8
Default
  6
Continuous
 62
     7
 48
25.4
100
AcDbLine
 10
383.0289752685
 20
28.8227967423
 30
0.0
 11
398.6877848408
 21
28.8227967423
 31
0.0
  0
LINE
  5
10D
330
1F
100
AcDbEntity
  8
Default
  6
Continuous
 62
     7
 48
25.4
100
AcDbLine
 10
383.0289752685
 20
115.9249249884
 30
0.0
 11
398.6877848408
 21
115.9249249884
 31
0.0
  0
LINE
  5
10E
330
1F
100
AcDbEntity
  8
Default
  6
Continuous
 62
     7
 48
25.4
100
AcDbLine
 10
376.1782460806
 20
184.4322168674
 30
0.0
 11
398.6877848408
 21
184.4322168674
 31
0.0
  0
LINE
  5
10F
330
1F
100
AcDbEntity
  8
Default
  6
Continuous
 62
     7
 48
25.4
100
AcDbLine
 10
376.1782460806
 20
254.8968599429
 30
0.0
 11
398.6877848408
 21
254.8968599429
 31
0.0
  0
TEXT
  5
111
330
1F
100
AcDbEntity
  8
Default
  6
Continuous
 62
     7
 48
25.4
100
AcDbText
 10
256.7500445661
 20
300.6808301524
 30
0.0
 40
46.0
  1
A
  7
SEACAD_arial_ttf
 11
256.7500445661
 21
346.6808301524
 31
0.0
100
AcDbText
 73
     3
  0
TEXT
  5
112
330
1F
100
AcDbEntity
  8
Default
  6
Continuous
 62
     7
 48
25.4
100
AcDbText
 10
398.4239755998
 20
323.4456752783
 30
0.0
 40
46.0
  1
B
  7
SEACAD_arial_ttf
 11
398.4239755998
 21
369.4456752783
 31
0.0
100
AcDbText
 73
     3
  0
TEXT
  5
113
330
1F
100
AcDbEntity
  8
Default
  6
Continuous
 62
     7
 48
25.4
100
AcDbText
 10
416.0401363687
 20
155.1134723757
 30
0.0
 40
46.0
  1
E
  7
SEACAD_arial_ttf
 11
416.0401363687
 21
201.1134723757
 31
0.0
100
AcDbText
 73
     3
  0
TEXT
  5
114
330
1F
100
AcDbEntity
  8
Default
  6
Continuous
 62
     7
 48
25.4
100
AcDbText
 10
288.2228023736
 20
152.1774455809
 30
0.0
 40
46.0
  1
D
  7
SEACAD_arial_ttf
 11
288.2228023736
 21
198.1774455809
 31
0.0
100
AcDbText
 73
     3
  0
TEXT
  5
115
330
1F
100
AcDbEntity
  8
Default
  6
Continuous
 62
     7
 48
25.4
100
AcDbText
 10
158.0589478036
 20
178.6016867342
 30
0.0
 40
46.0
  1
C
  7
SEACAD_arial_ttf
 11
158.0589478036
 21
224.6016867342
 31
0.0
100
AcDbText
 73
     3
  0
TEXT
  5
117
330
1F
100
AcDbEntity
  8
Default
  6
Continuous
 62
     7
 48
25.4
100
AcDbText
 10
184.8728182455
 20
370.6711617232
 30
0.0
 40
3.5
  1
Measure this dimension to check 
  7
SEACAD_arial_ttfB
 11
184.8728182455
 21
374.1711617232
 31
0.0
100
AcDbText
 73
     3
  0
TEXT
  5
118
330
1F
100
AcDbEntity
  8
Default
  6
Continuous
 62
     7
 48
25.4
100
AcDbText
 10
189.3273637001
 20
364.9438889959
 30
0.0
 40
3.5
  1
the printer scale is set to 1:1^J
  7
SEACAD_arial_ttfB
 11
189.3273637001
 21
368.4438889959
 31
0.0
100
AcDbText
 73
     3
  0
INSERT
  5
11A
330
1F
100
AcDbEntity
  8
Default
100
AcDbBlockReference
  2
SE
 10
0.0
 20
0.0
 30
0.0
  0
DIMENSION
  5
15E
330
1F
100
AcDbEntity
  8
Default
  6
Continuous
 62
     7
 48
25.4
100
AcDbDimension
  2
DMBLK1
 10
138.3666737362
 20
411.6738786488
 30
0.0
 11
155.7248331364
 21
397.6084138274
 31
0.0
 70
   163
  1
\A1;<>
 71
     5
 42
-1.0
  3
UOB1
100
AcDbDiametricDimension
 15
143.8053000602
 25
407.2669132861
 35
0.0
 40
0.0
  0
DIMENSION
  5
16B
330
1F
100
AcDbEntity
  8
Default
  6
Continuous
 62
     7
 48
25.4
100
AcDbDimension
  2
DMBLK2
 10
130.367010018
 20
341.9995846429
 30
0.0
 11
140.4011570993
 21
352.2199029711
 31
0.0
 70
   163
  1
\A1;<>
 71
     5
 42
-1.0
  3
UOB1
100
AcDbDiametricDimension
 15
134.1501297823
 25
345.8528955373
 35
0.0
 40
0.0
  0
DIMENSION
  5
177
330
1F
100
AcDbEntity
  8
Default
  6
Continuous
 62
     7
 48
25.4
100
AcDbDimension
  2
DMBLK3
 10
208.4733425354
 20
420.2707839852
 30
0.0
 11
196.4765624308
 21
407.4293654956
 31
0.0
 70
   163
  1
\A1;<>
 71
     5
 42
-1.0
  3
UOB1
100
AcDbDiametricDimension
 15
204.7869430155
 25
416.3248419456
 35
0.0
 40
0.0
  0
DIMENSION
  5
183
330
1F
100
AcDbEntity
  8
Default
  6
Continuous
 62
     7
 48
25.4
100
AcDbDimension
  2
DMBLK4
 10
308.7086143686
 20
420.0211689461
 30
0.0
 11
301.0177567367
 21
413.6443266836
 31
0.0
 70
   163
  1
\A1;<>
 71
     5
 42
-1.0
  3
UOB1
100
AcDbDiametricDimension
 15
304.5516711822
 25
416.5744569846
 35
0.0
 40
0.0
  0
DIMENSION
  5
18F
330
1F
100
AcDbEntity
  8
Default
  6
Continuous
 62
     7
 48
25.4
100
AcDbDimension
  2
DMBLK5
 10
408.5712426806
 20
420.1745471389
 30
0.0
 11
399.5093342783
 21
411.4131262915
 31
0.0
 70
   163
  1
\A1;<>
 71
     5
 42
-1.0
  3
UOB1
100
AcDbDiametricDimension
 15
404.6890428703
 25
416.4210787918
 35
0.0
 40
0.0
  0
DIMENSION
  5
19B
330
1F
100
AcDbEntity
  8
Default
  6
Continuous
 62
     7
 48
25.4
100
AcDbDimension
  2
DMBLK6
 10
474.8662542615
 20
407.2335734442
 30
0.0
 11
463.5009981431
 21
416.6772881862
 31
0.0
 70
   163
  1
\A1;<>
 71
     5
 42
-1.0
  3
UOB1
100
AcDbDiametricDimension
 15
469.4823430439
 25
411.7072184906
 35
0.0
 40
0.0
  0
DIMENSION
  5
1A7
330
1F
100
AcDbEntity
  8
Default
  6
Continuous
 62
     7
 48
25.4
100
AcDbDimension
  2
DMBLK7
 10
482.691945281
 20
346.0317385577
 30
0.0
 11
476.3263892671
 21
338.1022429481
 31
0.0
 70
   163
  1
\A1;<>
 71
     5
 42
-1.0
  3
UOB1
100
AcDbDiametricDimension
 15
479.3114860204
 25
341.8207416226
 35
0.0
 40
0.0
  0
DIMENSION
  5
1B3
330
1F
100
AcDbEntity
  8
Default
  6
Continuous
 62
     7
 48
25.4
100
AcDbDimension
  2
DMBLK8
 10
482.6631010507
 20
246.0545724308
 30
0.0
 11
472.8097425523
 21
233.4318410911
 31
0.0
 70
   163
  1
\A1;<>
 71
     5
 42
-1.0
  3
UOB1
100
AcDbDiametricDimension
 15
479.3403302506
 25
241.7979077494
 35
0.0
 40
0.0
  0
DIMENSION
  5
1BF
330
1F
100
AcDbEntity
  8
Default
  6
Continuous
 62
     7
 48
25.4
100
AcDbDimension
  2
DMBLK9
 10
482.9122785927
 20
145.834052776
 30
0.0
 11
474.3421033019
 21
137.276214256
 31
0.0
 70
   163
  1
\A1;<>
 71
     5
 42
-1.0
  3
UOB1
100
AcDbDiametricDimension
 15
479.0911527087
 25
142.0184274042
 35
0.0
 40
0.0
  0
DIMENSION
  5
1CB
330
1F
100
AcDbEntity
  8
Default
  6
Continuous
 62
     7
 48
25.4
100
AcDbDimension
  2
DMBLK10
 10
475.035851778
 20
76.3667644588
 30
0.0
 11
463.6155780317
 21
84.4097754635
 31
0.0
 70
   163
  1
\A1;<>
 71
     5
 42
-1.0
  3
UOB1
100
AcDbDiametricDimension
 15
469.3127455274
 25
80.3974039669
 35
0.0
 40
0.0
  0
DIMENSION
  5
1D7
330
1F
100
AcDbEntity
  8
Default
  6
Continuous
 62
     7
 48
25.4
100
AcDbDimension
  2
DMBLK11
 10
404.6813770778
 20
67.685894287
 30
0.0
 11
415.7293106297
 21
78.2803331955
 31
0.0
 70
   163
  1
\A1;<>
 71
     5
 42
-1.0
  3
UOB1
100
AcDbDiametricDimension
 15
408.578908473
 25
71.4234401427
 35
0.0
 40
0.0
  0
DIMENSION
  5
1E3
330
1F
100
AcDbEntity
  8
Default
  6
Continuous
 62
     7
 48
25.4
100
AcDbDimension
  2
DMBLK12
 10
304.5835477619
 20
67.7935741308
 30
0.0
 11
318.4363848688
 21
79.7139274313
 31
0.0
 70
   163
  1
\A1;<>
 71
     5
 42
-1.0
  3
UOB1
100
AcDbDiametricDimension
 15
308.6767377889
 25
71.3157602989
 35
0.0
 40
0.0
  0
DIMENSION
  5
1EF
330
1F
100
AcDbEntity
  8
Default
  6
Continuous
 62
     7
 48
25.4
100
AcDbDimension
  2
DMBLK13
 10
143.7023110092
 20
76.0572512843
 30
0.0
 11
128.5914886011
 21
89.4845393496
 31
0.0
 70
   163
  1
\A1;<>
 71
     5
 42
-1.0
  3
UOB1
100
AcDbDiametricDimension
 15
138.469662787
 25
80.7069171414
 35
0.0
 40
0.0
  0
DIMENSION
  5
1FB
330
1F
100
AcDbEntity
  8
Default
  6
Continuous
 62
     7
 48
25.4
100
AcDbDimension
  2
DMBLK14
 10
130.4448190314
 20
141.9261631451
 30
0.0
 11
143.2534533079
 21
156.0506245336
 31
0.0
 70
   163
  1
\A1;<>
 71
     5
 42
-1.0
  3
UOB1
100
AcDbDiametricDimension
 15
134.0723207689
 25
145.9263170352
 35
0.0
 40
0.0
  0
DIMENSION
  5
207
330
1F
100
AcDbEntity
  8
Default
  6
Continuous
 62
     7
 48
25.4
100
AcDbDimension
  2
DMBLK15
 10
130.5635315439
 20
241.8246109671
 30
0.0
 11
140.3174270106
 21
253.9181843657
 31
0.0
 70
   163
  1
\A1;<>
 71
     5
 42
-1.0
  3
UOB1
100
AcDbDiametricDimension
 15
133.9536082565
 25
246.0278692131
 35
0.0
 40
0.0
  0
DIMENSION
  5
213
330
1F
100
AcDbEntity
  8
Default
  6
Continuous
 62
     7
 48
25.4
100
AcDbDimension
  2
DMBLK16
 10
72.4685684898
 20
432.0978129654
 30
0.0
 11
72.4685684898
 21
243.9262474327
 31
0.0
 70
   161
  1
\A1;<>
 71
     5
 42
-1.0
  3
UOB1
100
AcDbAlignedDimension
 13
141.0859868982
 23
432.0978129654
 33
0.0
 14
141.0859868981
 24
55.7546672149
 34
0.0
1001
ACAD
1000
DSTYLE
1002
{
1070
    73
1070
     0
1070
    74
1070
     0
1070
    77
1070
     1
1070
   279
1070
     0
1070
   271
1070
     0
1070
   272
1070
     0
1070
     0
1002
}
  0
DIMENSION
  5
21F
330
1F
100
AcDbEntity
  8
Default
  6
Continuous
 62
     7
 48
25.4
100
AcDbDimension
  2
DMBLK17
 10
93.3409986983
 20
343.9262400901
 30
0.0
 11
93.3409986983
 21
243.9262386
 31
0.0
 70
   161
  1
\A1;<>
 71
     5
 42
-1.0
  3
UOB1
100
AcDbAlignedDimension
 13
120.2585699002
 23
343.9262400901
 33
0.0
 14
120.2585699002
 24
143.9262400901
 34
0.0
1001
ACAD
1000
DSTYLE
1002
{
1070
    73
1070
     0
1070
    74
1070
     0
1070
    77
1070
     1
1070
   279
1070
     0
1070
     0
1002
}
  0
DIMENSION
  5
22B
330
1F
100
AcDbEntity
  8
Default
  6
Continuous
 62
     7
 48
25.4
100
AcDbDimension
  2
DMBLK18
 10
518.0862074698
 20
343.9262400901
 30
0.0
 11
518.0862074698
 21
243.9262386
 31
0.0
 70
   161
  1
\A1;<>
 71
     5
 42
-1.0
  3
UOB1
100
AcDbAlignedDimension
 13
493.0017156507
 23
343.9262400901
 33
0.0
 14
493.0017156507
 24
143.9262400901
 34
0.0
1001
ACAD
1000
DSTYLE
1002
{
1070
    73
1070
     0
1070
    74
1070
     0
1070
    77
1070
     1
1070
   279
1070
     0
1070
     0
1002
}
  0
DIMENSION
  5
237
330
1F
100
AcDbEntity
  8
Default
  6
Continuous
 62
     7
 48
25.4
100
AcDbDimension
  2
DMBLK19
 10
206.6301427754
 20
445.7386020167
 30
0.0
 11
306.6301412853
 21
445.7386020167
 31
0.0
 70
   160
  1
\A1;<>
 71
     5
 42
-1.0
  3
UOB1
100
AcDbAlignedDimension
 13
406.6301427754
 23
430.2978129654
 33
0.0
 14
206.6301427754
 24
430.2978129654
 34
0.0
100
AcDbRotatedDimension
1001
ACAD
1000
DSTYLE
1002
{
1070
    73
1070
     0
1070
    74
1070
     0
1070
    77
1070
     1
1070
   279
1070
     0
1070
     0
1002
}
  0
DIMENSION
  5
243
330
1F
100
AcDbEntity
  8
Default
  6
Continuous
 62
     7
 48
25.4
100
AcDbDimension
  2
DMBLK20
 10
118.4585699002
 20
456.5040337295
 30
0.0
 11
306.6301354329
 21
456.5040337295
 31
0.0
 70
   161
  1
\A1;<>
 71
     5
 42
-1.0
  3
UOB1
100
AcDbAlignedDimension
 13
118.4585699002
 23
409.4703959674
 33
0.0
 14
494.8017156507
 24
409.4703959674
 34
0.0
1001
ACAD
1000
DSTYLE
1002
{
1070
    73
1070
     0
1070
    74
1070
     0
1070
    77
1070
     1
1070
   279
1070
     0
1070
   271
1070
     0
1070
   272
1070
     0
1070
     0
1002
}
  0
DIMENSION
  5
24F
330
1F
100
AcDbEntity
  8
Default
  6
Continuous
 62
     7
 48
25.4
100
AcDbDimension
  2
DMBLK21
 10
306.6301427754
 20
378.4716989434
 30
0.0
 11
213.4443597833
 21
378.4716989434
 31
0.0
 70
   160
  1
\A1;<>
 71
     5
 42
-1.0
  3
UOB1
100
AcDbAlignedDimension
 13
120.2585699002
 23
343.9262400901
 33
0.0
 14
306.6301427754
 24
418.2978129654
 34
0.0
100
AcDbRotatedDimension
1001
ACAD
1000
DSTYLE
1002
{
1070
    73
1070
     0
1070
    74
1070
     0
1070
    77
1070
     1
1070
   279
1070
     0
1070
     0
1002
}
  0
DIMENSION
  5
25B
330
1F
100
AcDbEntity
  8
Default
  6
Continuous
 62
     7
 48
25.4
100
AcDbDimension
  2
DMBLK22
 10
107.7585699002
 20
31.7588206334
 30
0.0
 11
137.7585705707
 21
31.7588206334
 31
0.0
 70
   160
  1
\A1;<>
 71
     5
 42
-1.0
  3
UOB1
100
AcDbAlignedDimension
 13
167.7585699002
 23
105.0546672149
 33
0.0
 14
107.7585699002
 24
78.3820842128
 34
0.0
100
AcDbRotatedDimension
1001
ACAD
1000
DSTYLE
1002
{
1070
    73
1070
     0
1070
    74
1070
     0
1070
    77
1070
     1
1070
   279
1070
     0
1070
     0
1002
}
  0
DIMENSION
  5
267
330
1F
100
AcDbEntity
  8
Default
  6
Continuous
 62
     7
 48
25.4
100
AcDbDimension
  2
DMBLK23
 10
197.0806113223
 20
45.0546672149
 30
0.0
 11
197.0806113223
 21
80.0546670659
 31
0.0
 70
   160
  1
\A1;<>
 71
     5
 42
-1.0
  3
UOB1
100
AcDbAlignedDimension
 13
177.7585699002
 23
115.0546672149
 33
0.0
 14
151.9222783992
 24
45.0546672149
 34
0.0
 50
90.0
100
AcDbRotatedDimension
1001
ACAD
1000
DSTYLE
1002
{
1070
    73
1070
     0
1070
    74
1070
     0
1070
    77
1070
     1
1070
   279
1070
     0
1070
     0
1002
}
  0
DIMENSION
  5
272
330
1F
100
AcDbEntity
  8
Default
  6
Continuous
 62
     7
 48
25.4
100
AcDbDimension
  2
DMBLK24
 10
167.7585699002
 20
96.3514130516
 30
0.0
 11
227.7585685591
 21
96.3514130516
 31
0.0
 70
   161
  1
\A1;<>
 71
     5
 42
-1.0
  3
UOB1
100
AcDbAlignedDimension
 13
167.7585699002
 23
105.0546672149
 33
0.0
 14
287.7585699002
 24
105.0546672149
 34
0.0
1001
ACAD
1000
DSTYLE
1002
{
1070
    73
1070
     0
1070
    74
1070
     0
1070
    77
1070
     1
1070
   279
1070
     0
1070
     0
1002
}
  0
DIMENSION
  5
27C
330
1F
100
AcDbEntity
  8
Default
  6
Continuous
 62
     7
 48
25.4
100
AcDbDimension
  2
DMBLK25
 10
277.7585699002
 20
105.0546672149
 30
0.0
 11
273.0312251602
 21
103.5029275864
 31
0.0
 70
   164
  1
\A1;<>
 71
     5
 42
-1.0
  3
UOB1
100
AcDbRadialDimension
 15
287.2597993801
 25
108.1734231158
 35
0.0
 40
0.0
1001
ACAD
1000
DSTYLE
1002
{
1070
   279
1070
     0
1070
     0
1002
}
  0
DIMENSION
  5
285
330
1F
100
AcDbEntity
  8
Default
  6
Continuous
 62
     7
 48
25.4
100
AcDbDimension
  2
DMBLK26
 10
292.7585699002
 20
50.0546672149
 30
0.0
 11
278.809002912
 21
45.1999004238
 31
0.0
 70
   164
  1
\A1;<>
 71
     5
 42
-1.0
  3
UOB1
100
AcDbRadialDimension
 15
288.0363741601
 25
48.4112356245
 35
0.0
 40
0.0
1001
ACAD
1000
DSTYLE
1002
{
1070
   279
1070
     0
1070
     0
1002
}
  0
DIMENSION
  5
28E
330
1F
100
AcDbEntity
  8
Default
  6
Continuous
 62
     7
 48
25.4
100
AcDbDimension
  2
DMBLK27
 10
118.4585699002
 20
409.4703959674
 30
0.0
 11
105.2168280667
 21
416.7122619687
 31
0.0
 70
   164
  1
\A1;<>
 71
     5
 42
-1.0
  3
UOB1
100
AcDbRadialDimension
 15
109.0707847923
 25
414.6045454362
 35
0.0
 40
0.0
1001
ACAD
1000
DSTYLE
1002
{
1070
   279
1070
     0
1070
   271
1070
     0
1070
   272
1070
     0
1070
     0
1002
}
  0
DIMENSION
  5
297
330
1F
100
AcDbEntity
  8
Default
  6
Continuous
 62
     7
 48
25.4
100
AcDbDimension
  2
DMBLK28
 10
406.6301427754
 20
34.6948498441
 30
0.0
 11
356.6301420304
 21
34.6948498441
 31
0.0
 70
   161
  1
\A1;<>
 71
     5
 42
-1.0
  3
UOB1
100
AcDbAlignedDimension
 13
406.6301427754
 23
57.5546672149
 33
0.0
 14
306.6301427754
 24
57.5546672149
 34
0.0
1001
ACAD
1000
DSTYLE
1002
{
1070
    73
1070
     0
1070
    74
1070
     0
1070
    77
1070
     1
1070
   279
1070
     0
1070
     0
1002
}
  0
DIMENSION
  5
2A3
330
1F
100
AcDbEntity
  8
Default
  6
Continuous
 62
     7
 48
25.4
100
AcDbDimension
  2
DMBLK29
 10
118.4585699002
 20
446.6502609103
 30
0.0
 11
129.7722783991
 21
446.6502609103
 31
0.0
 70
   160
  1
\A1;<>
 71
     5
 42
-1.0
  3
UOB1
100
AcDbAlignedDimension
 13
141.0859868982
 23
432.0978129654
 33
0.0
 14
118.4585699002
 24
409.4703959674
 34
0.0
100
AcDbRotatedDimension
1001
ACAD
1000
DSTYLE
1002
{
1070
    73
1070
     0
1070
    74
1070
     0
1070
    77
1070
     1
1070
   279
1070
     0
1070
   271
1070
     1
1070
   272
1070
     1
1070
     0
1002
}
  0
DIMENSION
  5
2AF
330
1F
100
AcDbEntity
  8
Default
  6
Continuous
 62
     7
 48
25.4
100
AcDbDimension
  2
DMBLK30
 10
83.4883795241
 20
432.0978129654
 30
0.0
 11
83.4883795241
 21
420.7841044665
 31
0.0
 70
   160
  1
\A1;<>
 71
     5
 42
-1.0
  3
UOB1
100
AcDbAlignedDimension
 13
118.4585699002
 23
409.4703959674
 33
0.0
 14
141.0859868982
 24
432.0978129654
 34
0.0
 50
90.0
100
AcDbRotatedDimension
1001
ACAD
1000
DSTYLE
1002
{
1070
    73
1070
     0
1070
    74
1070
     0
1070
    77
1070
     1
1070
   279
1070
     0
1070
   271
1070
     1
1070
   272
1070
     1
1070
     0
1002
}
  0
DIMENSION
  5
2BB
330
1F
100
AcDbEntity
  8
Default
  6
Continuous
 62
     7
 48
25.4
100
AcDbDimension
  2
DMBLK31
 10
83.488379524
 20
432.0978129654
 30
0.0
 11
83.488379524
 21
448.2124446331
 31
0.0
 70
   161
  1
\A1;<>
 71
     5
 42
-1.0
  3
UOB1
100
AcDbAlignedDimension
 13
141.0859868982
 23
432.0978129654
 33
0.0
 14
141.0859868982
 24
442.7978129654
 34
0.0
1001
ACAD
1000
DSTYLE
1002
{
1070
    73
1070
     0
1070
    74
1070
     0
1070
    77
1070
     1
1070
   279
1070
     0
1070
     0
1002
}
  0
DIMENSION
  5
2C7
330
1F
100
AcDbEntity
  8
Default
  6
Continuous
 62
     7
 48
25.4
100
AcDbDimension
  2
DMBLK32
 10
107.7585699002
 20
446.6502609104
 30
0.0
 11
104.7731311182
 21
446.6502609104
 31
0.0
 70
   160
  1
\A1;<>
 71
     5
 42
-1.0
  3
UOB1
100
AcDbAlignedDimension
 13
118.4585699002
 23
409.4703959674
 33
0.0
 14
107.7585699002
 24
409.4703959674
 34
0.0
100
AcDbRotatedDimension
1001
ACAD
1000
DSTYLE
1002
{
1070
    73
1070
     0
1070
    74
1070
     0
1070
    77
1070
     1
1070
   279
1070
     0
1070
     0
1002
}
  0
DIMENSION
  5
2D3
330
1F
100
AcDbEntity
  8
Default
  6
Continuous
 62
     7
 48
25.4
100
AcDbDimension
  2
DMBLK33
 10
193.3658042895
 20
430.2978129654
 30
0.0
 11
193.3658042895
 21
432.8598315424
 31
0.0
 70
   161
  1
\A1;<>
 71
     5
 42
-1.0
  3
UOB1
100
AcDbAlignedDimension
 13
206.6301427754
 23
430.2978129654
 33
0.0
 14
206.6301427754
 24
418.2978129654
 34
0.0
1001
ACAD
1000
DSTYLE
1002
{
1070
    73
1070
     0
1070
    74
1070
     0
1070
    77
1070
     1
1070
   279
1070
     0
1070
     0
1002
}
  0
DIMENSION
  5
2DF
330
1F
100
AcDbEntity
  8
Default
  6
Continuous
 62
     7
 48
25.4
100
AcDbDimension
  2
DMBLK34
 10
185.1631853702
 20
442.7978129654
 30
0.0
 11
185.1631853702
 21
430.547812645
 31
0.0
 70
   160
  1
\A1;<>
 71
     5
 42
-1.0
  3
UOB1
100
AcDbAlignedDimension
 13
206.6301427754
 23
418.2978129654
 33
0.0
 14
141.0859868982
 24
442.7978129654
 34
0.0
 50
90.0
100
AcDbRotatedDimension
1001
ACAD
1000
DSTYLE
1002
{
1070
    73
1070
     0
1070
    74
1070
     0
1070
    77
1070
     1
1070
   279
1070
     0
1070
     0
1002
}
  0
ENDSEC
  0
SECTION
  2
OBJECTS
  0
DICTIONARY
  5
C
330
0
100
AcDbDictionary
281
     1
  3
ACAD_GROUP
350
D
  3
ACAD_LAYOUT
350
1A
  3
ACAD_MLINESTYLE
350
17
  3
ACAD_PLOTSETTINGS
350
19
  3
ACAD_PLOTSTYLENAME
350
E
  0
DICTIONARY
  5
D
102
{ACAD_REACTORS
330
C
102
}
330
C
100
AcDbDictionary
281
     1
  0
DICTIONARY
  5
1A
102
{ACAD_REACTORS
330
C
102
}
330
C
100
AcDbDictionary
281
     1
  3
Layout1
350
1E
  3
Model
350
22
  0
DICTIONARY
  5
17
102
{ACAD_REACTORS
330
C
102
}
330
C
100
AcDbDictionary
281
     1
  3
Standard
350
18
  0
DICTIONARY
  5
19
102
{ACAD_REACTORS
330
C
102
}
330
C
100
AcDbDictionary
281
     1
  0
ACDBDICTIONARYWDFLT
  5
E
102
{ACAD_REACTORS
330
C
102
}
330
C
100
AcDbDictionary
281
     1
  3
Normal
350
F
100
AcDbDictionaryWithDefault
340
F
  0
LAYOUT
  5
1E
102
{ACAD_REACTORS
330
1A
102
}
330
1A
100
AcDbPlotSettings
  1

  2

  4

  6

 40
0.0
 41
0.0
 42
0.0
 43
0.0
 44
0.0
 45
0.0
 46
0.0
 47
0.0
 48
0.0
 49
0.0
140
0.0
141
0.0
142
1.0
143
1.0
 70
   688
 72
     0
 73
     0
 74
     5
  7

 75
    16
147
1.0
148
0.0
149
0.0
100
AcDbLayout
  1
Layout1
 70
     1
 71
     1
 10
0.0
 20
0.0
 11
594.0
 21
420.0
 12
0.0
 22
0.0
 32
0.0
 14
0.0
 24
0.0
 34
0.0
 15
594.0
 25
420.0
 35
0.0
146
0.0
 13
0.0
 23
0.0
 33
0.0
 16
1.0
 26
0.0
 36
0.0
 17
0.0
 27
1.0
 37
0.0
 76
     0
330
1B
  0
LAYOUT
  5
22
102
{ACAD_REACTORS
330
1A
102
}
330
1A
100
AcDbPlotSettings
  1

  2

  4

  6

 40
0.0
 41
0.0
 42
0.0
 43
0.0
 44
0.0
 45
0.0
 46
0.0
 47
0.0
 48
0.0
 49
0.0
140
0.0
141
0.0
142
1.0
143
1.0
 70
  1712
 72
     0
 73
     0
 74
     0
  7

 75
     0
147
1.0
148
0.0
149
0.0
100
AcDbLayout
  1
Model
 70
     1
 71
     0
 10
0.0
 20
0.0
 11
594.0
 21
420.0
 12
0.0
 22
0.0
 32
0.0
 14
0.0
 24
0.0
 34
0.0
 15
594.0
 25
420.0
 35
0.0
146
0.0
 13
0.0
 23
0.0
 33
0.0
 16
1.0
 26
0.0
 36
0.0
 17
0.0
 27
1.0
 37
0.0
 76
     0
330
1F
  0
MLINESTYLE
  5
18
102
{ACAD_REACTORS
330
17
102
}
330
17
100
AcDbMlineStyle
  2
Standard
 70
     0
  3

 62
   256
 51
90.0
 52
90.0
 71
     2
 49
0.5
 62
   256
  6
BYLAYER
 49
-0.5
 62
   256
  6
BYLAYER
  0
ACDBPLACEHOLDER
  5
F
102
{ACAD_REACTORS
330
E
102
}
330
E
  0
ENDSEC
  0
EOF
